  0
SECTION
  2
HEADER
  9
$ACADVER
  1
AC1015
  9
$ACADMAINTVER
 70
    20
  9
$DWGCODEPAGE
  3
ANSI_1252
  9
$INSBASE
 10
0.0
 20
0.0
 30
0.0
  9
$EXTMIN
 10
204.3902617563347
 20
-29.25793014172351
 30
0.0
  9
$EXTMAX
 10
1587.327072065461
 20
363.7083339272434
 30
0.0
  9
$LIMMIN
 10
0.0
 20
0.0
  9
$LIMMAX
 10
420.0
 20
297.0
  9
$ORTHOMODE
 70
     0
  9
$REGENMODE
 70
     1
  9
$FILLMODE
 70
     1
  9
$QTEXTMODE
 70
     0
  9
$MIRRTEXT
 70
     0
  9
$LTSCALE
 40
1.0
  9
$ATTMODE
 70
     1
  9
$TEXTSIZE
 40
2.5
  9
$TRACEWID
 40
1.0
  9
$TEXTSTYLE
  7
Compan
  9
$CLAYER
  8
0.20
  9
$CELTYPE
  6
ByLayer
  9
$CECOLOR
 62
   256
  9
$CELTSCALE
 40
1.0
  9
$DISPSILH
 70
     0
  9
$DIMSCALE
 40
1.0
  9
$DIMASZ
 40
2.5
  9
$DIMEXO
 40
0.625
  9
$DIMDLI
 40
3.75
  9
$DIMRND
 40
0.0
  9
$DIMDLE
 40
0.0
  9
$DIMEXE
 40
1.25
  9
$DIMTP
 40
0.0
  9
$DIMTM
 40
0.0
  9
$DIMTXT
 40
2.5
  9
$DIMCEN
 40
2.5
  9
$DIMTSZ
 40
0.0
  9
$DIMTOL
 70
     0
  9
$DIMLIM
 70
     0
  9
$DIMTIH
 70
     0
  9
$DIMTOH
 70
     0
  9
$DIMSE1
 70
     0
  9
$DIMSE2
 70
     0
  9
$DIMTAD
 70
     1
  9
$DIMZIN
 70
     8
  9
$DIMBLK
  1

  9
$DIMASO
 70
     1
  9
$DIMSHO
 70
     1
  9
$DIMPOST
  1

  9
$DIMAPOST
  1

  9
$DIMALT
 70
     0
  9
$DIMALTD
 70
     3
  9
$DIMALTF
 40
0.03937007874016
  9
$DIMLFAC
 40
1.0
  9
$DIMTOFL
 70
     1
  9
$DIMTVP
 40
0.0
  9
$DIMTIX
 70
     0
  9
$DIMSOXD
 70
     0
  9
$DIMSAH
 70
     0
  9
$DIMBLK1
  1

  9
$DIMBLK2
  1

  9
$DIMSTYLE
  2
ISO-25
  9
$DIMCLRD
 70
     0
  9
$DIMCLRE
 70
     0
  9
$DIMCLRT
 70
     0
  9
$DIMTFAC
 40
1.0
  9
$DIMGAP
 40
0.625
  9
$DIMJUST
 70
     0
  9
$DIMSD1
 70
     0
  9
$DIMSD2
 70
     0
  9
$DIMTOLJ
 70
     0
  9
$DIMTZIN
 70
     8
  9
$DIMALTZ
 70
     0
  9
$DIMALTTZ
 70
     0
  9
$DIMUPT
 70
     0
  9
$DIMDEC
 70
     2
  9
$DIMTDEC
 70
     2
  9
$DIMALTU
 70
     2
  9
$DIMALTTD
 70
     3
  9
$DIMTXSTY
  7
Standard
  9
$DIMAUNIT
 70
     0
  9
$DIMADEC
 70
     0
  9
$DIMALTRND
 40
0.0
  9
$DIMAZIN
 70
     0
  9
$DIMDSEP
 70
    44
  9
$DIMATFIT
 70
     3
  9
$DIMFRAC
 70
     0
  9
$DIMLDRBLK
  1

  9
$DIMLUNIT
 70
     2
  9
$DIMLWD
 70
    -2
  9
$DIMLWE
 70
    -2
  9
$DIMTMOVE
 70
     0
  9
$LUNITS
 70
     2
  9
$LUPREC
 70
     4
  9
$SKETCHINC
 40
1.0
  9
$FILLETRAD
 40
0.0
  9
$AUNITS
 70
     0
  9
$AUPREC
 70
     0
  9
$MENU
  1
.
  9
$ELEVATION
 40
0.0
  9
$PELEVATION
 40
0.0
  9
$THICKNESS
 40
0.0
  9
$LIMCHECK
 70
     0
  9
$CHAMFERA
 40
0.0
  9
$CHAMFERB
 40
0.0
  9
$CHAMFERC
 40
0.0
  9
$CHAMFERD
 40
0.0
  9
$SKPOLY
 70
     0
  9
$TDCREATE
 40
2454141.501836840
  9
$TDUCREATE
 40
2454140.960170174
  9
$TDUPDATE
 40
2456348.408032766
  9
$TDUUPDATE
 40
2456347.866366100
  9
$TDINDWG
 40
0.1245959838
  9
$TDUSRTIMER
 40
0.1245959838
  9
$USRTIMER
 70
     1
  9
$ANGBASE
 50
0.0
  9
$ANGDIR
 70
     0
  9
$PDMODE
 70
     0
  9
$PDSIZE
 40
0.0
  9
$PLINEWID
 40
0.0
  9
$SPLFRAME
 70
     0
  9
$SPLINETYPE
 70
     6
  9
$SPLINESEGS
 70
     8
  9
$HANDSEED
  5
B58
  9
$SURFTAB1
 70
     6
  9
$SURFTAB2
 70
     6
  9
$SURFTYPE
 70
     6
  9
$SURFU
 70
     6
  9
$SURFV
 70
     6
  9
$UCSBASE
  2

  9
$UCSNAME
  2

  9
$UCSORG
 10
0.0
 20
0.0
 30
0.0
  9
$UCSXDIR
 10
1.0
 20
0.0
 30
0.0
  9
$UCSYDIR
 10
0.0
 20
1.0
 30
0.0
  9
$UCSORTHOREF
  2

  9
$UCSORTHOVIEW
 70
     0
  9
$UCSORGTOP
 10
0.0
 20
0.0
 30
0.0
  9
$UCSORGBOTTOM
 10
0.0
 20
0.0
 30
0.0
  9
$UCSORGLEFT
 10
0.0
 20
0.0
 30
0.0
  9
$UCSORGRIGHT
 10
0.0
 20
0.0
 30
0.0
  9
$UCSORGFRONT
 10
0.0
 20
0.0
 30
0.0
  9
$UCSORGBACK
 10
0.0
 20
0.0
 30
0.0
  9
$PUCSBASE
  2

  9
$PUCSNAME
  2

  9
$PUCSORG
 10
0.0
 20
0.0
 30
0.0
  9
$PUCSXDIR
 10
1.0
 20
0.0
 30
0.0
  9
$PUCSYDIR
 10
0.0
 20
1.0
 30
0.0
  9
$PUCSORTHOREF
  2

  9
$PUCSORTHOVIEW
 70
     0
  9
$PUCSORGTOP
 10
0.0
 20
0.0
 30
0.0
  9
$PUCSORGBOTTOM
 10
0.0
 20
0.0
 30
0.0
  9
$PUCSORGLEFT
 10
0.0
 20
0.0
 30
0.0
  9
$PUCSORGRIGHT
 10
0.0
 20
0.0
 30
0.0
  9
$PUCSORGFRONT
 10
0.0
 20
0.0
 30
0.0
  9
$PUCSORGBACK
 10
0.0
 20
0.0
 30
0.0
  9
$USERI1
 70
     0
  9
$USERI2
 70
     0
  9
$USERI3
 70
     0
  9
$USERI4
 70
     0
  9
$USERI5
 70
     0
  9
$USERR1
 40
0.0
  9
$USERR2
 40
0.0
  9
$USERR3
 40
0.0
  9
$USERR4
 40
0.0
  9
$USERR5
 40
0.0
  9
$WORLDVIEW
 70
     1
  9
$SHADEDGE
 70
     3
  9
$SHADEDIF
 70
    70
  9
$TILEMODE
 70
     0
  9
$MAXACTVP
 70
    64
  9
$PINSBASE
 10
0.0
 20
0.0
 30
0.0
  9
$PLIMCHECK
 70
     0
  9
$PEXTMIN
 10
11.19334726623958
 20
15.05673776334794
 30
0.0
  9
$PEXTMAX
 10
192.9508975590694
 20
283.7174016427523
 30
0.0
  9
$PLIMMIN
 10
-3.174999952316284
 20
-3.174999952316284
  9
$PLIMMAX
 10
206.7983276844024
 20
293.8356506824494
  9
$UNITMODE
 70
     0
  9
$VISRETAIN
 70
     1
  9
$PLINEGEN
 70
     0
  9
$PSLTSCALE
 70
     1
  9
$TREEDEPTH
 70
  3020
  9
$CMLSTYLE
  2
Standard
  9
$CMLJUST
 70
     0
  9
$CMLSCALE
 40
20.0
  9
$PROXYGRAPHICS
 70
     1
  9
$MEASUREMENT
 70
     1
  9
$CELWEIGHT
370
    -1
  9
$ENDCAPS
280
     0
  9
$JOINSTYLE
280
     0
  9
$LWDISPLAY
290
     0
  9
$INSUNITS
 70
     4
  9
$HYPERLINKBASE
  1

  9
$STYLESHEET
  1

  9
$XEDIT
290
     1
  9
$CEPSNTYPE
380
     0
  9
$PSTYLEMODE
290
     1
  9
$FINGERPRINTGUID
  2
{0CA0F6C8-AD14-46CC-8629-98FE493BB0F9}
  9
$VERSIONGUID
  2
{431982C6-7196-4D89-A602-20FB2E5D8476}
  9
$EXTNAMES
290
     1
  9
$PSVPSCALE
 40
0.0
  9
$OLESTARTUP
290
     0
  0
ENDSEC
  0
SECTION
  2
CLASSES
  0
CLASS
  1
ACDBDICTIONARYWDFLT
  2
AcDbDictionaryWithDefault
  3
ObjectDBX Classes
 90
        0
280
     0
281
     0
  0
CLASS
  1
ACDBPLACEHOLDER
  2
AcDbPlaceHolder
  3
ObjectDBX Classes
 90
        0
280
     0
281
     0
  0
CLASS
  1
LAYOUT
  2
AcDbLayout
  3
ObjectDBX Classes
 90
        0
280
     0
281
     0
  0
CLASS
  1
DICTIONARYVAR
  2
AcDbDictionaryVar
  3
ObjectDBX Classes
 90
        0
280
     0
281
     0
  0
CLASS
  1
TABLESTYLE
  2
AcDbTableStyle
  3
ObjectDBX Classes
 90
     2047
280
     0
281
     0
  0
CLASS
  1
SORTENTSTABLE
  2
AcDbSortentsTable
  3
ObjectDBX Classes
 90
        0
280
     0
281
     0
  0
CLASS
  1
FIELD
  2
AcDbField
  3
ObjectDBX Classes
 90
    33920
280
     0
281
     0
  0
CLASS
  1
FIELDLIST
  2
AcDbFieldList
  3
ObjectDBX Classes
 90
     1152
280
     0
281
     0
  0
CLASS
  1
DIMASSOC
  2
AcDbDimAssoc
  3
"AcDbDimAssoc|Product Desc:     AcDim ARX App For Dimension|Company:          Autodesk, Inc.|WEB Address:      www.autodesk.com"
 90
        0
280
     0
281
     0
  0
CLASS
  1
IMAGEDEF
  2
AcDbRasterImageDef
  3
ISM
 90
        0
280
     0
281
     0
  0
CLASS
  1
IMAGE
  2
AcDbRasterImage
  3
ISM
 90
      127
280
     0
281
     1
  0
CLASS
  1
IMAGEDEF_REACTOR
  2
AcDbRasterImageDefReactor
  3
ISM
 90
        1
280
     0
281
     0
  0
CLASS
  1
RASTERVARIABLES
  2
AcDbRasterVariables
  3
ISM
 90
        0
280
     0
281
     0
  0
ENDSEC
  0
SECTION
  2
TABLES
  0
TABLE
  2
VPORT
  5
8
330
0
100
AcDbSymbolTable
 70
     1
  0
VPORT
  5
9E5
330
8
100
AcDbSymbolTableRecord
100
AcDbViewportTableRecord
  2
*Active
 70
     0
 10
0.0
 20
0.0
 11
1.0
 21
1.0
 12
439.9276930189252
 22
261.0604840749813
 13
0.0
 23
0.0
 14
10.0
 24
10.0
 15
10.0
 25
10.0
 16
0.0
 26
0.0
 36
1.0
 17
0.0
 27
0.0
 37
0.0
 40
143.7470940358485
 41
1.929752066115702
 42
50.0
 43
0.0
 44
0.0
 50
0.0
 51
0.0
 71
     0
 72
  1000
 73
     1
 74
     3
 75
     0
 76
     0
 77
     0
 78
     0
281
     0
 65
     1
110
0.0
120
0.0
130
0.0
111
1.0
121
0.0
131
0.0
112
0.0
122
1.0
132
0.0
 79
     0
146
0.0
  0
ENDTAB
  0
TABLE
  2
LTYPE
  5
5
330
0
100
AcDbSymbolTable
 70
     3
  0
LTYPE
  5
14
330
5
100
AcDbSymbolTableRecord
100
AcDbLinetypeTableRecord
  2
ByBlock
 70
     0
  3

 72
    65
 73
     0
 40
0.0
  0
LTYPE
  5
15
330
5
100
AcDbSymbolTableRecord
100
AcDbLinetypeTableRecord
  2
ByLayer
 70
     0
  3

 72
    65
 73
     0
 40
0.0
  0
LTYPE
  5
16
330
5
100
AcDbSymbolTableRecord
100
AcDbLinetypeTableRecord
  2
Continuous
 70
     0
  3
Solid line
 72
    65
 73
     0
 40
0.0
  0
LTYPE
  5
114
330
5
100
AcDbSymbolTableRecord
100
AcDbLinetypeTableRecord
  2
DASHED
 70
     0
  3
Dashed __ __ __ __ __ __ __ __ __ __ __ __ __ _
 72
    65
 73
     2
 40
19.05
 49
12.7
 74
     0
 49
-6.349999999999999
 74
     0
  0
LTYPE
  5
1E7
330
5
100
AcDbSymbolTableRecord
100
AcDbLinetypeTableRecord
  2
DASHED2
 70
     0
  3
Dashed (.5x) _ _ _ _ _ _ _ _ _ _ _ _ _ _ _ _ _
 72
    65
 73
     2
 40
9.524999999999998
 49
6.349999999999999
 74
     0
 49
-3.174999999999999
 74
     0
  0
ENDTAB
  0
TABLE
  2
LAYER
  5
2
102
{ACAD_XDICTIONARY
360
10F
102
}
330
0
100
AcDbSymbolTable
 70
    15
  0
LAYER
  5
10
330
2
100
AcDbSymbolTableRecord
100
AcDbLayerTableRecord
  2
0
 70
     0
 62
     7
  6
Continuous
370
    -3
390
F
  0
LAYER
  5
103
330
2
100
AcDbSymbolTableRecord
100
AcDbLayerTableRecord
  2
0.05
 70
     0
 62
     7
  6
Continuous
370
     5
390
F
1001
AcAecLayerStandard
1000

1000

  0
LAYER
  5
105
330
2
100
AcDbSymbolTableRecord
100
AcDbLayerTableRecord
  2
0.09
 70
     0
 62
     9
  6
Continuous
370
     9
390
F
1001
AcAecLayerStandard
1000

1000

  0
LAYER
  5
106
330
2
100
AcDbSymbolTableRecord
100
AcDbLayerTableRecord
  2
0.13
 70
     0
 62
    30
  6
Continuous
370
    13
390
F
1001
AcAecLayerStandard
1000

1000

  0
LAYER
  5
107
330
2
100
AcDbSymbolTableRecord
100
AcDbLayerTableRecord
  2
0.15
 70
     0
 62
     3
  6
Continuous
370
    15
390
F
1001
AcAecLayerStandard
1000

1000

  0
LAYER
  5
108
330
2
100
AcDbSymbolTableRecord
100
AcDbLayerTableRecord
  2
0.18
 70
     0
 62
     7
  6
Continuous
370
    18
390
F
1001
AcAecLayerStandard
1000

1000

  0
LAYER
  5
109
330
2
100
AcDbSymbolTableRecord
100
AcDbLayerTableRecord
  2
0.20
 70
     0
 62
     7
  6
Continuous
370
    20
390
F
1001
AcAecLayerStandard
1000

1000

  0
LAYER
  5
10B
330
2
100
AcDbSymbolTableRecord
100
AcDbLayerTableRecord
  2
0.30
 70
     0
 62
     5
  6
Continuous
370
    30
390
F
1001
AcAecLayerStandard
1000

1000

  0
LAYER
  5
10C
330
2
100
AcDbSymbolTableRecord
100
AcDbLayerTableRecord
  2
0.40
 70
     0
 62
     7
  6
Continuous
370
    40
390
F
1001
AcAecLayerStandard
1000

1000

  0
LAYER
  5
10D
330
2
100
AcDbSymbolTableRecord
100
AcDbLayerTableRecord
  2
0.50
 70
     0
 62
     7
  6
Continuous
370
    50
390
F
1001
AcAecLayerStandard
1000

1000

  0
LAYER
  5
10E
330
2
100
AcDbSymbolTableRecord
100
AcDbLayerTableRecord
  2
0.09 - dashed
 70
     0
 62
     1
  6
DASHED
370
     9
390
F
1001
AcAecLayerStandard
1000

1000

  0
LAYER
  5
1E8
330
2
100
AcDbSymbolTableRecord
100
AcDbLayerTableRecord
  2
0.15 - dashed Underlay
 70
     0
 62
     3
  6
DASHED2
370
    15
390
F
1001
AcAecLayerStandard
1000

1000

  0
LAYER
  5
1E9
330
2
100
AcDbSymbolTableRecord
100
AcDbLayerTableRecord
  2
Defpoints
 70
     0
 62
     7
  6
Continuous
290
     0
370
    -3
390
F
  0
LAYER
  5
1EA
330
2
100
AcDbSymbolTableRecord
100
AcDbLayerTableRecord
  2
dim
 70
     0
 62
    12
  6
Continuous
370
    13
390
F
1001
AcAecLayerStandard
1000

1000

  0
LAYER
  5
719
330
2
100
AcDbSymbolTableRecord
100
AcDbLayerTableRecord
  2
light grey
 70
     0
 62
   253
  6
Continuous
370
    20
390
F
1001
AcAecLayerStandard
1000

1000

  0
ENDTAB
  0
TABLE
  2
STYLE
  5
3
330
0
100
AcDbSymbolTable
 70
     4
  0
STYLE
  5
11
330
3
100
AcDbSymbolTableRecord
100
AcDbTextStyleTableRecord
  2
Standard
 70
     0
 40
0.0
 41
1.0
 50
0.0
 71
     0
 42
2.5
  3
stylu.ttf
  4

1001
ACAD
1000
Stylus BT
1071
       34
  0
STYLE
  5
113
330
3
100
AcDbSymbolTableRecord
100
AcDbTextStyleTableRecord
  2

 70
     1
 40
0.0
 41
1.0
 50
0.0
 71
     0
 42
2.5
  3
ltypeshp.shx
  4

  0
STYLE
  5
17C
330
3
100
AcDbSymbolTableRecord
100
AcDbTextStyleTableRecord
  2
Compan
 70
     0
 40
0.0
 41
1.0
 50
0.0
 71
     0
 42
2.5
  3
TIMESBI.TTF
  4

1001
ACAD
1000
Times New Roman
1071
 50331666
  0
STYLE
  5
1EB
330
3
100
AcDbSymbolTableRecord
100
AcDbTextStyleTableRecord
  2
Rockcote
 70
     0
 40
0.0
 41
1.0
 50
0.0
 71
     0
 42
8.5
  3
stylu.ttf
  4

1001
ACAD
1000
Stylus BT
1071
       34
  0
ENDTAB
  0
TABLE
  2
VIEW
  5
6
330
0
100
AcDbSymbolTable
 70
     0
  0
ENDTAB
  0
TABLE
  2
UCS
  5
7
330
0
100
AcDbSymbolTable
 70
     0
  0
ENDTAB
  0
TABLE
  2
APPID
  5
9
330
0
100
AcDbSymbolTable
 70
     3
  0
APPID
  5
12
330
9
100
AcDbSymbolTableRecord
100
AcDbRegAppTableRecord
  2
ACAD
 70
     0
  0
APPID
  5
9E
330
9
100
AcDbSymbolTableRecord
100
AcDbRegAppTableRecord
  2
ACAD_PSEXT
 70
     0
  0
APPID
  5
104
330
9
100
AcDbSymbolTableRecord
100
AcDbRegAppTableRecord
  2
AcAecLayerStandard
 70
     0
  0
ENDTAB
  0
TABLE
  2
DIMSTYLE
  5
A
330
0
100
AcDbSymbolTable
 70
     2
100
AcDbDimStyleTable
 71
     1
340
27
  0
DIMSTYLE
105
27
102
{ACAD_REACTORS
330
256
330
26C
330
3F8
330
497
330
640
102
}
330
A
100
AcDbSymbolTableRecord
100
AcDbDimStyleTableRecord
  2
ISO-25
 70
     0
 41
2.5
 42
0.625
 43
3.75
 44
1.25
 73
     0
 74
     0
 77
     1
 78
     8
140
2.5
141
2.5
143
0.03937007874016
147
0.625
171
     3
172
     1
271
     2
272
     2
274
     3
278
    44
283
     0
284
     8
340
11
  0
DIMSTYLE
105
1EC
330
A
100
AcDbSymbolTableRecord
100
AcDbDimStyleTableRecord
  2
Rockcote
 70
     0
 41
5.0
 42
0.625
 43
3.75
 44
1.25
 73
     0
 74
     0
 77
     1
 78
     8
140
2.5
141
2.5
143
0.03937007874016
147
0.625
171
     3
172
     1
271
     0
272
     0
274
     3
283
     0
284
     8
340
1EB
  0
ENDTAB
  0
TABLE
  2
BLOCK_RECORD
  5
1
330
0
100
AcDbSymbolTable
 70
     9
  0
BLOCK_RECORD
  5
1F
102
{ACAD_XDICTIONARY
360
307
102
}
330
1
100
AcDbSymbolTableRecord
100
AcDbBlockTableRecord
  2
*Model_Space
340
22
  0
BLOCK_RECORD
  5
745
330
1
100
AcDbSymbolTableRecord
100
AcDbBlockTableRecord
  2
*Paper_Space
340
742
  0
BLOCK_RECORD
  5
26F
330
1
100
AcDbSymbolTableRecord
100
AcDbBlockTableRecord
  2
*D0
340
0
  0
BLOCK_RECORD
  5
27B
330
1
100
AcDbSymbolTableRecord
100
AcDbBlockTableRecord
  2
*D1
340
0
  0
BLOCK_RECORD
  5
29B
330
1
100
AcDbSymbolTableRecord
100
AcDbBlockTableRecord
  2
*D2
340
0
  0
BLOCK_RECORD
  5
2A7
330
1
100
AcDbSymbolTableRecord
100
AcDbBlockTableRecord
  2
*D3
340
0
  0
BLOCK_RECORD
  5
2B3
102
{ACAD_XDICTIONARY
360
2F2
102
}
330
1
100
AcDbSymbolTableRecord
100
AcDbBlockTableRecord
  2
A$C149A149A
340
0
  0
BLOCK_RECORD
  5
3F9
330
1
100
AcDbSymbolTableRecord
100
AcDbBlockTableRecord
  2
*D5
340
0
  0
BLOCK_RECORD
  5
498
330
1
100
AcDbSymbolTableRecord
100
AcDbBlockTableRecord
  2
*D6
340
0
  0
BLOCK_RECORD
  5
641
330
1
100
AcDbSymbolTableRecord
100
AcDbBlockTableRecord
  2
*D7
340
0
  0
BLOCK_RECORD
  5
6E7
102
{ACAD_XDICTIONARY
360
6E8
102
}
330
1
100
AcDbSymbolTableRecord
100
AcDbBlockTableRecord
  2
shingle
340
0
310
2800000020000000200000000100080000000000000400000000000000000000000000000000000000000000000080000080000000808000800000008000800080800000C0C0C000C0DCC000F0CAA6000020400000206000002080000020A0000020C0000020E00000400000004020000040400000406000004080000040A0
310
000040C0000040E00000600000006020000060400000606000006080000060A0000060C0000060E00000800000008020000080400000806000008080000080A0000080C0000080E00000A0000000A0200000A0400000A0600000A0800000A0A00000A0C00000A0E00000C0000000C0200000C0400000C0600000C0800000C0
310
A00000C0C00000C0E00000E0000000E0200000E0400000E0600000E0800000E0A00000E0C00000E0E00040000000400020004000400040006000400080004000A0004000C0004000E00040200000402020004020400040206000402080004020A0004020C0004020E000404000004040200040404000404060004040800040
310
40A0004040C0004040E00040600000406020004060400040606000406080004060A0004060C0004060E00040800000408020004080400040806000408080004080A0004080C0004080E00040A0000040A0200040A0400040A0600040A0800040A0A00040A0C00040A0E00040C0000040C0200040C0400040C0600040C08000
310
40C0A00040C0C00040C0E00040E0000040E0200040E0400040E0600040E0800040E0A00040E0C00040E0E00080000000800020008000400080006000800080008000A0008000C0008000E00080200000802020008020400080206000802080008020A0008020C0008020E00080400000804020008040400080406000804080
310
008040A0008040C0008040E00080600000806020008060400080606000806080008060A0008060C0008060E00080800000808020008080400080806000808080008080A0008080C0008080E00080A0000080A0200080A0400080A0600080A0800080A0A00080A0C00080A0E00080C0000080C0200080C0400080C0600080C0
310
800080C0A00080C0C00080C0E00080E0000080E0200080E0400080E0600080E0800080E0A00080E0C00080E0E000C0000000C0002000C0004000C0006000C0008000C000A000C000C000C000E000C0200000C0202000C0204000C0206000C0208000C020A000C020C000C020E000C0400000C0402000C0404000C0406000C0
310
408000C040A000C040C000C040E000C0600000C0602000C0604000C0606000C0608000C060A000C060C000C060E000C0800000C0802000C0804000C0806000C0808000C080A000C080C000C080E000C0A00000C0A02000C0A04000C0A06000C0A08000C0A0A000C0A0C000C0A0E000C0C00000C0C02000C0C04000C0C06000
310
C0C08000C0C0A000F0FBFF00A4A0A000808080000000FF0000FF000000FFFF00FF000000FF00FF00FFFF0000FFFFFF0000000000000000000000000000000000000000000000000000000000000000000000000000000000000000000000000000000000000000000000000000000000000000000000000000000000000000
310
00000000000000000000000000000000000000000000000000000000000000000000000000000000000000000000000000000000000000000000000000000000000000000000000000000000000000000000000000000000000000000000000000000000000000000000000000000000000000000000000000000000000000
310
00000000000000000000000000000000000000000000000000000000000000000000000000000000000000000000000000000000000000000000000000000000000000000000000000000000000000000000000000000000000000000000000000000000000000000000000000000000000000000000000000000000000000
310
00000000000000000000000000000000000000000000000000000000000000000000000000000000000000000000000000000000000000000000000000000000000000000000000000000000000000000000000000000000000000000000000000000000000000000000000000000000000000000000000000000000000000
310
0000000000000000000000000000000000000000000000000000000000000000000000FFFFFFFFFFFFFFFFFFFFFFFFFFFFFFFF0000FFFFFFFFFFFFFFFFFFFFFFFFFFFFFFFF00000000000000000000000000000000000000000000000000000000000000000000000000000000000000000000000000000000000000000000
310
00000000000000000000000000000000000000000000000000000000000000000000000000000000000000000000000000000000000000000000000000000000000000000000000000000000000000000000000000000000000000000000000000000000000000000000000000000000000000000000000000000000000000
310
00000000000000000000000000000000000000000000000000000000000000000000000000000000000000000000000000000000000000000000000000000000000000000000000000000000000000000000000000000000000000000000000000000000000000000000000000000000000000000000000000000000000000
310
00000000000000000000000000000000000000000000000000000000000000000000000000000000000000000000000000000000000000000000000000000000000000000000000000000000000000000000000000000000000000000000000000000000000000000000000000000000000000000000000000000000000000
310
0000000000000000000000000000000000000000000000000000000000000000000000000000000000000000000000000000000000000000
1001
ACAD
1000
DesignCenter Data
1002
{
1070
     1
1070
     4
1002
}
  0
ENDTAB
  0
ENDSEC
  0
SECTION
  2
BLOCKS
  0
BLOCK
  5
20
330
1F
100
AcDbEntity
  8
0
100
AcDbBlockBegin
  2
*Model_Space
 70
     0
 10
0.0
 20
0.0
 30
0.0
  3
*Model_Space
  1

  0
ENDBLK
  5
21
330
1F
100
AcDbEntity
  8
0
100
AcDbBlockEnd
  0
BLOCK
  5
76D
330
745
100
AcDbEntity
 67
     1
  8
0
100
AcDbBlockBegin
  2
*Paper_Space
 70
     0
 10
0.0
 20
0.0
 30
0.0
  3
*Paper_Space
  1

  0
ENDBLK
  5
76E
330
745
100
AcDbEntity
 67
     1
  8
0
100
AcDbBlockEnd
  0
BLOCK
  5
279
330
26F
100
AcDbEntity
  8
0
100
AcDbBlockBegin
  2
*D0
 70
     1
 10
0.0
 20
0.0
 30
0.0
  3
*D0
  1

  0
LINE
  5
67A
330
26F
100
AcDbEntity
  8
dim
 62
     0
370
    -2
100
AcDbLine
 10
320.947129190186
 20
258.9440870941562
 30
0.0
 11
320.1395832310573
 21
257.1558321718064
 31
0.0
  0
LINE
  5
67B
330
26F
100
AcDbEntity
  8
dim
 62
     0
370
    -2
100
AcDbLine
 10
342.7656457159675
 20
249.0912106197971
 30
0.0
 11
341.9580997568388
 21
247.3029556974473
 31
0.0
  0
LINE
  5
67C
330
26F
100
AcDbEntity
  8
dim
 62
     0
370
    -2
100
AcDbLine
 10
322.9324904164653
 20
257.2661474186958
 30
0.0
 11
340.1941032480824
 21
249.4710922976401
 31
0.0
  0
SOLID
  5
67D
330
26F
100
AcDbEntity
  8
dim
 62
     0
100
AcDbTrace
 10
323.1039755292406
 20
257.6458893932096
 30
0.0
 11
322.76100530369
 21
256.8864054441822
 31
0.0
 12
320.6540385693831
 22
258.2950580953475
 32
0.0
 13
320.6540385693831
 23
258.2950580953475
 33
0.0
  0
SOLID
  5
67E
330
26F
100
AcDbEntity
  8
dim
 62
     0
100
AcDbTrace
 10
340.3655883608577
 20
249.8508342721537
 30
0.0
 11
340.0226181353071
 21
249.0913503231263
 31
0.0
 12
342.4725550951646
 22
248.4421816209884
 32
0.0
 13
342.4725550951646
 23
248.4421816209884
 33
0.0
  0
MTEXT
  5
67F
330
26F
100
AcDbEntity
  8
dim
 62
     0
100
AcDbMText
 10
333.2108595116755
 20
257.0170339676246
 30
0.0
 40
2.5
 41
0.0
 71
     5
 72
     1
  1
20mm\Pminimum
 11
0.9113807388328835
 21
-0.4115642706606434
 31
0.0
 73
     1
 44
1.0
1001
ACAD
1000
MTEXTBEGIN
1070
    73
1070
     1
1070
    44
1040
1.0
1070
    74
1070
     0
1000
MTEXTEND
  0
POINT
  5
680
330
26F
100
AcDbEntity
  8
Defpoints
 62
     0
100
AcDbPoint
 10
321.2043568593489
 20
259.5137000559267
 30
0.0
  0
POINT
  5
681
330
26F
100
AcDbEntity
  8
Defpoints
 62
     0
100
AcDbPoint
 10
343.0228733851304
 20
249.6608235815677
 30
0.0
  0
POINT
  5
682
330
26F
100
AcDbEntity
  8
Defpoints
 62
     0
100
AcDbPoint
 10
342.4725550951646
 20
248.4421816209884
 30
0.0
  0
ENDBLK
  5
27A
330
26F
100
AcDbEntity
  8
0
100
AcDbBlockEnd
  0
BLOCK
  5
285
330
27B
100
AcDbEntity
  8
0
100
AcDbBlockBegin
  2
*D1
 70
     1
 10
0.0
 20
0.0
 30
0.0
  3
*D1
  1

  0
LINE
  5
829
330
27B
100
AcDbEntity
  8
dim
 62
     0
370
    -2
100
AcDbLine
 10
232.4869149293064
 20
332.9530571787875
 30
0.0
 11
240.8193997173368
 21
363.7083339272434
 31
0.0
  0
LINE
  5
82A
330
27B
100
AcDbEntity
  8
dim
 62
     0
370
    -2
100
AcDbLine
 10
449.6584640424606
 20
274.1150683621463
 30
0.0
 11
457.990948830491
 21
304.8703451106023
 31
0.0
  0
LINE
  5
82B
330
27B
100
AcDbEntity
  8
dim
 62
     0
370
    -2
100
AcDbLine
 10
242.9055311647537
 20
361.8480770675334
 30
0.0
 11
455.2510644742729
 21
304.3175940684948
 31
0.0
  0
SOLID
  5
82C
330
27B
100
AcDbEntity
  8
dim
 62
     0
100
AcDbTrace
 10
243.0144899828873
 20
362.2502450511697
 30
0.0
 11
242.7965723466201
 21
361.4459090838971
 31
0.0
 12
240.4925232629361
 22
362.5018299763346
 32
0.0
 13
240.4925232629361
 23
362.5018299763346
 33
0.0
  0
SOLID
  5
82D
330
27B
100
AcDbEntity
  8
dim
 62
     0
100
AcDbTrace
 10
455.3600232924064
 20
304.7197620521311
 30
0.0
 11
455.1421056561393
 21
303.9154260848586
 31
0.0
 12
457.6640723760903
 22
303.6638411596936
 32
0.0
 13
457.6640723760903
 23
303.6638411596936
 33
0.0
  0
MTEXT
  5
82E
330
27B
100
AcDbEntity
  8
dim
 62
     0
100
AcDbMText
 10
349.5865595978053
 20
334.958834390657
 30
0.0
 40
2.5
 41
0.0
 71
     5
 72
     1
  1
225mm P & S Starter Course
 11
0.9652031607270131
 21
-0.2615011635205159
 31
0.0
 73
     1
 44
1.0
1001
ACAD
1000
MTEXTBEGIN
1070
    73
1070
     1
1070
    44
1040
1.0
1070
    74
1070
     0
1000
MTEXTEND
  0
POINT
  5
82F
330
27B
100
AcDbEntity
  8
Defpoints
 62
     0
100
AcDbPoint
 10
232.3234767021061
 20
332.3498052033332
 30
0.0
  0
POINT
  5
830
330
27B
100
AcDbEntity
  8
Defpoints
 62
     0
100
AcDbPoint
 10
449.4950258152602
 20
273.511816386692
 30
0.0
  0
POINT
  5
831
330
27B
100
AcDbEntity
  8
Defpoints
 62
     0
100
AcDbPoint
 10
457.6640723760903
 20
303.6638411596936
 30
0.0
  0
ENDBLK
  5
286
330
27B
100
AcDbEntity
  8
0
100
AcDbBlockEnd
  0
BLOCK
  5
29C
330
29B
100
AcDbEntity
  8
0
100
AcDbBlockBegin
  2
*D2
 70
     1
 10
0.0
 20
0.0
 30
0.0
  3
*D2
  1

  0
LINE
  5
29D
330
29B
100
AcDbEntity
  8
dim
 62
     0
370
    -2
100
AcDbLine
 10
3423.648010885461
 20
822.6122184522093
 30
0.0
 11
3422.190060059427
 21
817.1710718945133
 31
0.0
  0
LINE
  5
29E
330
29B
100
AcDbEntity
  8
dim
 62
     0
370
    -2
100
AcDbLine
 10
3442.966527411242
 20
817.435837550159
 30
0.0
 11
3441.508576585209
 21
811.9946909924632
 31
0.0
  0
LINE
  5
29F
330
29B
100
AcDbEntity
  8
dim
 62
     0
370
    -2
100
AcDbLine
 10
3424.928398431528
 20
817.7314315646183
 30
0.0
 11
3439.417285825864
 21
813.8491458880807
 31
0.0
  0
SOLID
  5
2A0
330
29B
100
AcDbEntity
  8
dim
 62
     0
100
AcDbTrace
 10
3425.036239700321
 20
818.1339006589055
 30
0.0
 11
3424.820557162735
 21
817.3289624703311
 31
0.0
 12
3422.513583865805
 22
818.3784791773748
 32
0.0
 13
3422.513583865805
 23
818.3784791773748
 33
0.0
  0
SOLID
  5
2A1
330
29B
100
AcDbEntity
  8
dim
 62
     0
100
AcDbTrace
 10
3439.525127094657
 20
814.2516149823679
 30
0.0
 11
3439.309444557071
 21
813.4466767937935
 31
0.0
 12
3441.832100391586
 22
813.2020982753244
 32
0.0
 13
3441.832100391586
 23
813.2020982753244
 33
0.0
  0
MTEXT
  5
2A2
330
29B
100
AcDbEntity
  8
dim
 62
     0
100
AcDbMText
 10
3433.208939355369
 20
819.6570562178751
 30
0.0
 40
2.5
 41
0.0
 71
     5
 72
     1
  1
20mm\Pminimum
 11
0.9659258262890705
 21
-0.2588190451025128
 31
0.0
 73
     1
 44
1.0
1001
ACAD
1000
MTEXTBEGIN
1070
    73
1070
     1
1070
    44
1040
1.0
1070
    74
1070
     0
1000
MTEXTEND
  0
POINT
  5
2A3
330
29B
100
AcDbEntity
  8
Defpoints
 62
     0
100
AcDbPoint
 10
3423.80977278865
 20
823.2159220936399
 30
0.0
  0
POINT
  5
2A4
330
29B
100
AcDbEntity
  8
Defpoints
 62
     0
100
AcDbPoint
 10
3443.128289314432
 20
818.0395411915897
 30
0.0
  0
POINT
  5
2A5
330
29B
100
AcDbEntity
  8
Defpoints
 62
     0
100
AcDbPoint
 10
3441.832100391586
 20
813.2020982753244
 30
0.0
  0
ENDBLK
  5
2A6
330
29B
100
AcDbEntity
  8
0
100
AcDbBlockEnd
  0
BLOCK
  5
2A8
330
2A7
100
AcDbEntity
  8
0
100
AcDbBlockBegin
  2
*D3
 70
     1
 10
0.0
 20
0.0
 30
0.0
  3
*D3
  1

  0
LINE
  5
2A9
330
2A7
100
AcDbEntity
  8
dim
 62
     0
370
    -2
100
AcDbLine
 10
3340.749835527859
 20
875.8218722818202
 30
0.0
 11
3337.81519271934
 21
864.8696362183633
 31
0.0
  0
LINE
  5
2AA
330
2A7
100
AcDbEntity
  8
dim
 62
     0
370
    -2
100
AcDbLine
 10
3562.912775574345
 20
816.2934919082411
 30
0.0
 11
3559.978132765826
 21
805.341255844784
 31
0.0
  0
LINE
  5
2AB
330
2A7
100
AcDbEntity
  8
dim
 62
     0
370
    -2
100
AcDbLine
 10
3340.553531091441
 20
865.4299958884683
 30
0.0
 11
3557.886842006482
 21
807.1957107404015
 31
0.0
  0
SOLID
  5
2AC
330
2A7
100
AcDbEntity
  8
dim
 62
     0
100
AcDbTrace
 10
3340.661372360234
 20
865.8324649827555
 30
0.0
 11
3340.445689822649
 21
865.0275267941811
 31
0.0
 12
3338.138716525718
 22
866.0770435012247
 32
0.0
 13
3338.138716525718
 23
866.0770435012247
 33
0.0
  0
SOLID
  5
2AD
330
2A7
100
AcDbEntity
  8
dim
 62
     0
100
AcDbTrace
 10
3557.994683275275
 20
807.5981798346887
 30
0.0
 11
3557.77900073769
 21
806.7932416461143
 31
0.0
 12
3560.301656572204
 22
806.5486631276453
 32
0.0
 13
3560.301656572204
 23
806.5486631276453
 33
0.0
  0
MTEXT
  5
2AE
330
2A7
100
AcDbEntity
  8
dim
 62
     0
100
AcDbMText
 10
3449.360602141323
 20
838.272266211424
 30
0.0
 40
2.5
 41
0.0
 71
     5
 72
     1
  1
230
 11
0.9659258262890691
 21
-0.2588190451025179
 31
0.0
 73
     1
 44
1.0
1001
ACAD
1000
MTEXTBEGIN
1070
    73
1070
     1
1070
    44
1040
1.0
1070
    74
1070
     0
1000
MTEXTEND
  0
POINT
  5
2AF
330
2A7
100
AcDbEntity
  8
Defpoints
 62
     0
100
AcDbPoint
 10
3340.911597431047
 20
876.425575923251
 30
0.0
  0
POINT
  5
2B0
330
2A7
100
AcDbEntity
  8
Defpoints
 62
     0
100
AcDbPoint
 10
3563.074537477534
 20
816.8971955496717
 30
0.0
  0
POINT
  5
2B1
330
2A7
100
AcDbEntity
  8
Defpoints
 62
     0
100
AcDbPoint
 10
3560.301656572204
 20
806.5486631276453
 30
0.0
  0
ENDBLK
  5
2B2
330
2A7
100
AcDbEntity
  8
0
100
AcDbBlockEnd
  0
BLOCK
  5
2F4
330
2B3
100
AcDbEntity
  8
0
100
AcDbBlockBegin
  2
A$C149A149A
 70
     0
 10
0.0
 20
0.0
 30
0.0
  3
A$C149A149A
  1

  0
LINE
  5
2B4
330
2B3
100
AcDbEntity
  8
0.20
100
AcDbLine
 10
38.82287342277868
 20
374.6738480720539
 30
0.0
 11
502.9595241403662
 21
250.3088073345903
 31
0.0
  0
LINE
  5
2B5
330
2B3
100
AcDbEntity
  8
0.20
100
AcDbLine
 10
0.0000166574004652
 20
229.7849741286936
 30
0.0
 11
388.828014309729
 21
125.5988261631416
 31
0.0
  0
LINE
  5
2B6
330
2B3
100
AcDbEntity
  8
0.20
100
AcDbLine
 10
71.68293388798793
 20
381.3981641133146
 30
0.0
 11
506.8418098169045
 21
264.7976947289265
 31
0.0
  0
LINE
  5
2B7
330
2B3
100
AcDbEntity
  8
0.15 - dashed Underlay
100
AcDbLine
 10
55.16324774793656
 20
386.8598768541671
 30
0.0
 11
507.1006288620069
 21
265.7636205552155
 31
0.0
  0
LINE
  5
2B8
330
2B3
100
AcDbEntity
  8
0.30
100
AcDbLine
 10
76.0135073006104
 20
385.9318094568953
 30
0.0
 11
510.6801291306906
 21
269.4632391607612
 31
0.0
  0
LINE
  5
2B9
330
2B3
100
AcDbEntity
  8
0.30
100
AcDbLine
 10
76.53114539081525
 20
387.8636611094732
 30
0.0
 11
221.4200193341758
 21
349.040804344095
 31
0.0
  0
LINE
  5
2BA
330
2B3
100
AcDbEntity
  8
0.30
100
AcDbLine
 10
366.3088932775354
 20
310.2179475787171
 30
0.0
 11
511.1977672208959
 21
271.395090813339
 31
0.0
  0
LINE
  5
2BB
330
2B3
100
AcDbEntity
  8
0.30
100
AcDbLine
 10
77.04878348102011
 20
389.7955127620514
 30
0.0
 11
221.9376574243816
 21
350.9726559966732
 31
0.0
  0
LINE
  5
2BC
330
2B3
100
AcDbEntity
  8
0.30
100
AcDbLine
 10
366.8265313677411
 20
312.1497992312952
 30
0.0
 11
511.7154053111007
 21
273.3269424659174
 31
0.0
  0
LINE
  5
2BD
330
2B3
100
AcDbEntity
  8
0.15
100
AcDbLine
 10
221.4200193341758
 20
349.0408043440948
 30
0.0
 11
366.8265313677411
 21
310.0792468704747
 31
0.0
  0
ARC
  5
2BE
330
2B3
100
AcDbEntity
  8
0.13
100
AcDbCircle
 10
263.6721389282452
 20
301.6206889196449
 30
0.0
 40
27.36867961903157
100
AcDbArc
 50
11.86742237797713
 51
75.06696328872056
  0
ARC
  5
2BF
330
2B3
100
AcDbEntity
  8
0.13
100
AcDbCircle
 10
282.9906554540262
 20
296.4443080175943
 30
0.0
 40
27.36867961903157
100
AcDbArc
 50
11.86742237797713
 51
75.06696328872056
  0
ARC
  5
2C0
330
2B3
100
AcDbEntity
  8
0.13
100
AcDbCircle
 10
302.3091719798072
 20
291.2679271155439
 30
0.0
 40
27.36867961903157
100
AcDbArc
 50
11.86742237797713
 51
75.06696328872056
  0
ARC
  5
2C1
330
2B3
100
AcDbEntity
  8
0.13
100
AcDbCircle
 10
321.627688505589
 20
286.0915462134935
 30
0.0
 40
27.36867961903157
100
AcDbArc
 50
11.86742237797713
 51
75.06696328872056
  0
ARC
  5
2C2
330
2B3
100
AcDbEntity
  8
0.13
100
AcDbCircle
 10
340.946205031371
 20
280.9151653114432
 30
0.0
 40
27.36867961903157
100
AcDbArc
 50
11.86742237797713
 51
75.06696328872056
  0
ARC
  5
2C3
330
2B3
100
AcDbEntity
  8
0.13
100
AcDbCircle
 10
360.2647215571519
 20
275.7387844093928
 30
0.0
 40
27.36867961903157
100
AcDbArc
 50
11.86742237797713
 51
75.06696328872056
  0
ARC
  5
2C4
330
2B3
100
AcDbEntity
  8
0.13
100
AcDbCircle
 10
379.5832380829329
 20
270.5624035073422
 30
0.0
 40
27.36867961903157
100
AcDbArc
 50
11.86742237797713
 51
75.06696328872056
  0
ARC
  5
2C5
330
2B3
100
AcDbEntity
  8
0.13
100
AcDbCircle
 10
398.9017546087148
 20
265.3860226052916
 30
0.0
 40
27.36867961903157
100
AcDbArc
 50
11.86742237797713
 51
75.06696328872056
  0
ARC
  5
2C6
330
2B3
100
AcDbEntity
  8
0.13
100
AcDbCircle
 10
418.2202711344948
 20
260.2096417032405
 30
0.0
 40
27.36867961903157
100
AcDbArc
 50
11.86742237797713
 51
75.06696328872056
  0
ARC
  5
2C7
330
2B3
100
AcDbEntity
  8
0.13
100
AcDbCircle
 10
437.5387876602767
 20
255.0332608011911
 30
0.0
 40
27.36867961903157
100
AcDbArc
 50
11.86742237797713
 51
75.06696328872056
  0
ARC
  5
2C8
330
2B3
100
AcDbEntity
  8
0.13
100
AcDbCircle
 10
456.8573041860586
 20
249.8568798991407
 30
0.0
 40
27.36867961903157
100
AcDbArc
 50
11.86742237797713
 51
75.06696328872056
  0
ARC
  5
2C9
330
2B3
100
AcDbEntity
  8
0.13
100
AcDbCircle
 10
476.1758207118405
 20
244.6804989970904
 30
0.0
 40
27.36867961903157
100
AcDbArc
 50
11.86742237797713
 51
75.06696328872056
  0
HATCH
  5
2CA
102
{ACAD_XDICTIONARY
360
B49
102
}
330
2B3
100
AcDbEntity
  8
0.20
 62
   254
100
AcDbHatch
 10
0.0
 20
0.0
 30
0.0
210
0.0
220
0.0
230
1.0
  2
SOLID
 70
     1
 71
     1
 91
        1
 92
        7
 72
     0
 73
     1
 93
       10
 10
458.8390127246139
 20
280.7658339854715
 10
458.5801936795119
 20
279.7999081591828
 10
508.808336646543
 20
266.3413178138516
 10
504.149593834697
 20
248.9546529406482
 10
461.6488574779782
 20
260.3426909251591
 10
461.3900384328749
 20
259.3767650988702
 10
503.8907747895946
 20
247.9887271143593
 10
502.8554986091854
 20
244.1250238092031
 10
503.8214244354739
 20
243.8662047641005
 10
510.033081517934
 20
267.0484245950379
 97
        1
330
2CB
 75
     0
 76
     1
 47
0.1520112486098737
 98
        1
 10
505.4737291706569
 20
268.0119985203983
  0
LWPOLYLINE
  5
2CB
102
{ACAD_REACTORS
330
2CA
102
}
330
2B3
100
AcDbEntity
  8
0.30
100
AcDbPolyline
 90
       11
 70
     0
 43
0.0
 10
510.033081517934
 20
267.0484245950381
 10
458.8390127246139
 20
280.7658339854715
 10
458.5801936795114
 20
279.7999081591826
 10
508.808336646543
 20
266.3413178138516
 10
504.1495938346975
 20
248.9546529406482
 10
461.6488574779782
 20
260.3426909251592
 10
461.3900384328749
 20
259.3767650988705
 10
503.890774789595
 20
247.9887271143593
 10
502.8554986091848
 20
244.125023809203
 10
503.8214244354731
 20
243.8662047641005
 10
510.033081517934
 20
267.0484245950381
  0
LINE
  5
2CC
330
2B3
100
AcDbEntity
  8
0.20
100
AcDbLine
 10
502.9595241403662
 20
250.3088073345903
 30
0.0
 11
506.8418098169045
 21
264.7976947289265
 31
0.0
  0
LWPOLYLINE
  5
2CD
102
{ACAD_REACTORS
330
2F1
102
}
330
2B3
100
AcDbEntity
  8
0.30
  6
DASHED
100
AcDbPolyline
 90
        5
 70
     0
 43
0.0
 10
287.6113224263454
 20
325.6108791423283
 10
448.9209354166209
 20
282.3880986102083
 42
0.073925858898814
 10
454.0093835931675
 20
282.0599292109839
 42
-0.0779269049776907
 10
459.0978317697159
 20
281.7317598117607
 10
510.2919005630365
 20
268.0143504213272
  0
LWPOLYLINE
  5
2CE
330
2B3
100
AcDbEntity
  8
0.30
100
AcDbPolyline
 90
        5
 70
     0
 43
0.0
 10
441.3280143097295
 20
234.0376926872742
 10
441.3280143097295
 20
159.0376926872742
 10
566.3280143097295
 20
159.0376926872742
 10
596.3280143097295
 20
277.8358374957379
 42
0.6998610900006126
 10
583.1365902440556
 20
277.0231114235603
  0
LWPOLYLINE
  5
2CF
330
2B3
100
AcDbEntity
  8
0.20
100
AcDbPolyline
 90
        4
 70
     1
 43
0.0
 10
389.8280143097295
 20
57.22484441066694
 10
389.8280143097295
 20
267.2248444106669
 10
439.8280143097294
 20
267.2248444106669
 10
439.8280143097294
 20
57.22484441066694
  0
LINE
  5
2D0
330
2B3
100
AcDbEntity
  8
0.20
100
AcDbLine
 10
388.8280143097295
 20
280.890253224654
 30
0.0
 11
388.828014309729
 21
125.5988261631416
 31
0.0
  0
LINE
  5
2D1
330
2B3
100
AcDbEntity
  8
0.13
100
AcDbLine
 10
439.8280143097294
 20
267.2248444106669
 30
0.0
 11
389.8280143097295
 21
57.22484441066694
 31
0.0
  0
LINE
  5
2D2
102
{ACAD_REACTORS
330
2DB
102
}
330
2B3
100
AcDbEntity
  8
0.13
100
AcDbLine
 10
439.8280143097294
 20
57.22484441066694
 30
0.0
 11
389.8280143097295
 21
267.2248444106669
 31
0.0
  0
LWPOLYLINE
  5
2D3
330
2B3
100
AcDbEntity
  8
0.20
100
AcDbPolyline
 90
        4
 70
     1
 43
0.0
 10
373.858862689337
 20
284.9012253127172
 10
330.3922005063291
 20
296.5480823423305
 10
307.0984864471025
 20
209.6147579763143
 10
350.5651486301099
 20
197.967900946701
  0
LINE
  5
2D4
330
2B3
100
AcDbEntity
  8
0.13
100
AcDbLine
 10
307.0984864471025
 20
209.6147579763143
 30
0.0
 11
373.858862689337
 21
284.9012253127172
 31
0.0
  0
MTEXT
  5
2D5
330
2B3
100
AcDbEntity
  8
0.20
100
AcDbMText
 10
532.6108999013849
 20
322.5417241969315
 30
0.0
 40
4.0
 41
79.0
 71
     1
 72
     5
  1
Asphalt shingle membrane over Peel & Stick starter course on PVC end capping over waterproof roofing underlay on 15mm plywood.
 73
     1
 44
1.0
1001
ACAD
1000
MTEXTBEGIN
1070
    73
1070
     1
1070
    44
1040
1.0
1070
    74
1070
     0
1000
MTEXTEND
  0
MTEXT
  5
2D6
330
2B3
100
AcDbEntity
  8
0.20
100
AcDbMText
 10
532.6108999013849
 20
140.0047312130498
 30
0.0
 40
4.0
 41
79.0
 71
     1
 72
     5
  1
Gutter/Spouting
 73
     1
 44
1.0
1001
ACAD
1000
MTEXTBEGIN
1070
    73
1070
     1
1070
    44
1040
1.0
1070
    74
1070
     0
1000
MTEXTEND
  0
MTEXT
  5
2D7
330
2B3
100
AcDbEntity
  8
0.20
100
AcDbMText
 10
532.6108999013849
 20
122.4604651971576
 30
0.0
 40
4.0
 41
41.65925925925925
 71
     1
 72
     5
  1
Fascia
 73
     1
 44
1.0
1001
ACAD
1000
MTEXTBEGIN
1070
    73
1070
     1
1070
    44
1040
1.0
1070
    74
1070
     0
1000
MTEXTEND
  0
LINE
  5
2D8
330
2B3
100
AcDbEntity
  8
0.20
100
AcDbLine
 10
373.858862689337
 20
284.9012253127172
 30
0.0
 11
350.5651486301099
 21
197.967900946701
 31
0.0
  0
DIMENSION
  5
2D9
102
{ACAD_XDICTIONARY
360
2DA
102
}
102
{ACAD_REACTORS
330
2DB
102
}
330
2B3
100
AcDbEntity
  8
dim
100
AcDbDimension
  2
*D2
 10
388.5318253868845
 20
262.387401494402
 30
0.0
 11
379.9086643506671
 21
268.8423594369525
 31
0.0
 12
-3053.300275004702
 22
-550.8146967809225
 32
0.0
 70
     1
  1
<>mm\Pminimum
 71
     5
 42
20.0
  3
ISO-25
100
AcDbAlignedDimension
 13
370.5094977839481
 23
272.4012253127172
 33
0.0
 14
389.8280143097295
 24
267.2248444106669
 34
0.0
  0
LEADER
  5
2DC
330
2B3
100
AcDbEntity
  8
dim
100
AcDbLeader
  3
ISO-25
 76
     3
 10
479.9192157890529
 20
282.5244326512668
 30
0.0
 10
514.3546076713064
 20
306.2610646530077
 30
0.0
 10
528.9964663056471
 20
306.2610646530077
 30
0.0
1001
ACAD
1000
DSTYLE
1002
{
1070
    41
1040
25.0
1002
}
  0
MTEXT
  5
2DD
330
2B3
100
AcDbEntity
  8
0.20
100
AcDbMText
 10
303.7158853670062
 20
177.4051187690777
 30
0.0
 40
4.0
 41
79.0
 71
     1
 72
     5
  1
ROOF FRAMES
 73
     1
 44
1.0
1001
ACAD
1000
MTEXTBEGIN
1070
    73
1070
     1
1070
    44
1040
1.0
1070
    74
1070
     0
1000
MTEXTEND
  0
MTEXT
  5
2DE
330
2B3
100
AcDbEntity
  8
0.20
100
AcDbMText
 10
532.6108999013849
 20
247.888708413883
 30
0.0
 40
4.0
 41
44.0
 71
     1
 72
     5
  1
PVC end cap
 73
     1
 44
1.0
1001
ACAD
1000
MTEXTBEGIN
1070
    73
1070
     1
1070
    44
1040
1.0
1070
    74
1070
     0
1000
MTEXTEND
  0
MTEXT
  5
2DF
330
2B3
100
AcDbEntity
  8
0.20
100
AcDbMText
 10
532.6108999013849
 20
273.8601139055652
 30
0.0
 40
4.0
 41
41.1921568627451
 71
     1
 72
     5
  1
Peel & Stick starter course
 73
     1
 44
1.0
1001
ACAD
1000
MTEXTBEGIN
1070
    73
1070
     1
1070
    44
1040
1.0
1070
    74
1070
     0
1000
MTEXTEND
  0
LEADER
  5
2E0
330
2B3
100
AcDbEntity
  8
dim
100
AcDbLeader
  3
Rockcote
 76
     2
 10
509.8847287813755
 20
268.123451771404
 30
0.0
 10
528.9964663056471
 20
268.123451771404
 30
0.0
211
-1.0
221
0.0000000000000001
231
0.0
  0
LEADER
  5
2E1
330
2B3
100
AcDbEntity
  8
dim
100
AcDbLeader
  3
Rockcote
 76
     2
 10
504.27384237889
 20
245.5546515151884
 30
0.0
 10
528.9964663056471
 20
245.5546515151884
 30
0.0
211
-1.0
221
0.0000000000000001
231
0.0
  0
LEADER
  5
2E2
330
2B3
100
AcDbEntity
  8
dim
100
AcDbLeader
  3
ISO-25
 76
     3
 10
514.3083125567809
 20
159.0376926872742
 30
0.0
 10
514.3546076713064
 20
137.2523128450286
 30
0.0
 10
528.9964663056471
 20
137.2523128450286
 30
0.0
1001
ACAD
1000
DSTYLE
1002
{
1070
    41
1040
5.0
1002
}
  0
LEADER
  5
2E3
330
2B3
100
AcDbEntity
  8
dim
100
AcDbLeader
  3
Rockcote
 76
     2
 10
439.8280143097294
 20
120.6499178405213
 30
0.0
 10
528.9964663056471
 20
120.6499178405213
 30
0.0
211
-1.0
221
0.0000000000000001
231
0.0
  0
MTEXT
  5
2E4
330
2B3
100
AcDbEntity
  8
0.20
100
AcDbMText
 10
393.0704609812183
 20
348.0619598247283
 30
0.0
 40
4.0
 41
79.0
 71
     1
 72
     5
  1
Noggins must be provided by the main contractor as per this drawing, to allow for fixing of plywood.
 73
     1
 44
1.0
1001
ACAD
1000
MTEXTBEGIN
1070
    73
1070
     1
1070
    44
1040
1.0
1070
    74
1070
     0
1000
MTEXTEND
  0
LEADER
  5
2E5
330
2B3
100
AcDbEntity
  8
dim
100
AcDbLeader
  3
ISO-25
 76
     3
 10
353.398620182958
 20
290.3835307692466
 30
0.0
 10
374.1806545218024
 20
334.4571533039027
 30
0.0
 10
388.822513156143
 20
334.4571533039027
 30
0.0
1001
ACAD
1000
DSTYLE
1002
{
1070
    41
1040
5.0
1002
}
  0
MTEXT
  5
2E6
102
{ACAD_XDICTIONARY
360
B4B
102
}
330
2B3
100
AcDbEntity
  8
0.20
100
AcDbMText
 10
532.3639662509386
 20
72.72198562679637
 30
0.0
 40
4.0
 41
107.8814814814814
 71
     1
 72
     5
  3
All gutters/spoutings shall be installed by the main contractor as per manufacturer's specifications.\P\PAll carpentry works and materials shall be provided by the main contractor, as per NZBC standards.\P\PFor roofing underlay & plywood installation
  1
s, refer to Installation Guide bulletin.
 73
     1
 44
1.0
1001
ACAD
1000
MTEXTBEGIN
1070
    73
1070
     1
1070
    44
1040
1.0
1070
    74
1070
     0
1000
MTEXTEND
  0
ARC
  5
2E7
330
2B3
100
AcDbEntity
  8
0
100
AcDbCircle
 10
511.420744804047
 20
63.65905403484316
 30
0.0
 40
11.10339015422855
100
AcDbArc
 50
105.6736175970291
 51
70.61330301493381
  0
ARC
  5
2E8
330
2B3
100
AcDbEntity
  8
0
100
AcDbCircle
 10
511.420744804047
 20
63.65905403484316
 30
0.0
 40
9.603390154228552
100
AcDbArc
 50
106.5933313325856
 51
69.05604189485019
  0
LINE
  5
2E9
330
2B3
100
AcDbEntity
  8
0
100
AcDbLine
 10
510.531789169845
 20
62.14390294018904
 30
0.0
 11
513.0916499301702
 21
62.14390294018904
 31
0.0
  0
LINE
  5
2EA
330
2B3
100
AcDbEntity
  8
0
100
AcDbLine
 10
513.0916499301702
 20
62.14390294018904
 30
0.0
 11
515.1064277172763
 21
74.13287923770735
 31
0.0
  0
LINE
  5
2EB
330
2B3
100
AcDbEntity
  8
0
100
AcDbLine
 10
510.531789169845
 20
62.14390294018904
 30
0.0
 11
508.4210847149907
 21
74.34957844981659
 31
0.0
  0
SPLINE
  5
2EC
330
2B3
100
AcDbEntity
  8
0
100
AcDbSpline
210
0.0
220
0.0
230
1.0
 70
     8
 71
     3
 72
    14
 73
    10
 74
     8
 42
0.0000000001
 43
0.0000000001
 44
0.0000000001
 40
0.0
 40
0.0
 40
0.0
 40
0.0
 40
1.153360054429817
 40
2.128448441361596
 40
2.891481907336642
 40
5.571474202971744
 40
6.397548371861869
 40
7.165475926971381
 40
8.492053936514782
 40
8.492053936514782
 40
8.492053936514782
 40
8.492053936514782
 10
508.4210847149907
 20
74.34957844981659
 30
0.0
 10
508.5566204405193
 20
74.71405147424019
 30
0.0
 10
508.8067425100692
 20
75.38666193770581
 30
0.0
 10
509.6237191332282
 20
76.02826691444914
 30
0.0
 10
511.1128067057547
 20
76.12429389363946
 30
0.0
 10
512.5483892067323
 20
76.36074708175377
 30
0.0
 10
513.932487266055
 20
75.88787484072812
 30
0.0
 10
514.6441660428538
 20
75.18541596006797
 30
0.0
 10
514.9271786113589
 20
74.54101661285128
 30
0.0
 10
515.1064277172763
 20
74.13287923770735
 30
0.0
 11
508.4210847149907
 21
74.34957844981659
 31
0.0
 11
508.9308338417367
 21
75.38417752334021
 31
0.0
 11
509.7134448153292
 21
75.96582812837891
 31
0.0
 11
510.4665821673957
 21
76.08831975715498
 31
0.0
 11
513.1463459531205
 21
76.12331629099981
 31
0.0
 11
513.9169987833692
 21
75.82583898474422
 31
0.0
 11
514.4774715173821
 21
75.30087894405096
 31
0.0
 11
515.1064277172763
 21
74.13287923770735
 31
0.0
  0
CIRCLE
  5
2ED
330
2B3
100
AcDbEntity
  8
0
100
AcDbCircle
 10
511.7409523917358
 20
58.41736395986504
 30
0.0
 40
2.569476904230562
  0
HATCH
  5
2EE
330
2B3
100
AcDbEntity
  8
0
100
AcDbHatch
 10
0.0
 20
0.0
 30
0.0
210
0.0
220
0.0
230
1.0
  2
SOLID
 70
     1
 71
     0
 91
        1
 92
        7
 72
     1
 73
     1
 93
        4
 10
515.1064277172763
 20
74.13287923770735
 42
0.0
 10
514.8535210658847
 20
72.62795305258737
 42
-6.050784953660254
 10
508.6782391238953
 20
72.86251887416688
 42
0.0
 10
508.4210847149907
 20
74.34957844981659
 42
6.48575145239653
 97
        0
 75
     0
 76
     1
 47
0.1251288764846155
 98
        1
 10
501.1290466139257
 20
65.49927891362881
  0
DIMENSION
  5
2EF
102
{ACAD_XDICTIONARY
360
2F0
102
}
102
{ACAD_REACTORS
330
2F1
102
}
330
2B3
100
AcDbEntity
  8
dim
100
AcDbDimension
  2
*D3
 10
507.0013815675029
 20
255.7339663467228
 30
0.0
 11
395.5610678512294
 21
285.5943084112689
 31
0.0
 12
-3053.300275004702
 22
-550.8146967809225
 32
0.0
 70
   129
 71
     5
 42
230.0000000000009
  3
ISO-25
100
AcDbAlignedDimension
 13
287.6113224263454
 23
325.6108791423283
 33
0.0
 14
509.7742624728316
 24
266.0824987687491
 34
0.0
  0
ENDBLK
  5
2F5
330
2B3
100
AcDbEntity
  8
0
100
AcDbBlockEnd
  0
BLOCK
  5
403
330
3F9
100
AcDbEntity
  8
0
100
AcDbBlockBegin
  2
*D5
 70
     1
 10
0.0
 20
0.0
 30
0.0
  3
*D5
  1

  0
LINE
  5
566
330
3F9
100
AcDbEntity
  8
dim
 62
     0
370
    -2
100
AcDbLine
 10
449.4936739574134
 20
273.51217699462
 30
0.0
 11
453.3722953111963
 21
288.1180982860378
 31
0.0
  0
LINE
  5
567
330
3F9
100
AcDbEntity
  8
dim
 62
     0
370
    -2
100
AcDbLine
 10
459.9898877677499
 20
270.7248937958146
 30
0.0
 11
463.8685091215328
 21
285.3308150872324
 31
0.0
  0
LINE
  5
568
330
3F9
100
AcDbEntity
  8
dim
 62
     0
370
    -2
100
AcDbLine
 10
455.467732217947
 20
286.2683296059519
 30
0.0
 11
461.1314320334136
 21
284.7643267698834
 31
0.0
  0
SOLID
  5
569
330
3F9
100
AcDbEntity
  8
dim
 62
     0
100
AcDbTrace
 10
455.5746722481751
 20
286.6710391055243
 30
0.0
 11
455.360792187719
 21
285.8656201063793
 31
0.0
 12
453.051475220512
 22
286.9099697873203
 32
0.0
 13
453.051475220512
 23
286.9099697873203
 33
0.0
  0
SOLID
  5
56A
330
3F9
100
AcDbEntity
  8
dim
 62
     0
100
AcDbTrace
 10
461.2383720636416
 20
285.1670362694559
 30
0.0
 11
461.0244920031854
 21
284.3616172703109
 31
0.0
 12
463.5476890308486
 22
284.1226865885149
 32
0.0
 13
463.5476890308486
 23
284.1226865885149
 33
0.0
  0
MTEXT
  5
56B
330
3F9
100
AcDbEntity
  8
dim
 62
     0
100
AcDbMText
 10
459.1452225491924
 20
288.7007992512281
 30
0.0
 40
2.5
 41
0.0
 71
     5
 72
     1
  1
10mm
 11
0.9665027989739879
 21
-0.2566560725473824
 31
0.0
 73
     1
 44
1.0
1001
ACAD
1000
MTEXTBEGIN
1070
    73
1070
     1
1070
    44
1040
1.0
1070
    74
1070
     0
1000
MTEXTEND
  0
POINT
  5
56C
330
3F9
100
AcDbEntity
  8
Defpoints
 62
     0
100
AcDbPoint
 10
449.3332639120713
 20
272.9081127452612
 30
0.0
  0
POINT
  5
56D
330
3F9
100
AcDbEntity
  8
Defpoints
 62
     0
100
AcDbPoint
 10
459.8294777224078
 20
270.1208295464558
 30
0.0
  0
POINT
  5
56E
330
3F9
100
AcDbEntity
  8
Defpoints
 62
     0
100
AcDbPoint
 10
463.5476890308486
 20
284.1226865885149
 30
0.0
  0
ENDBLK
  5
404
330
3F9
100
AcDbEntity
  8
0
100
AcDbBlockEnd
  0
BLOCK
  5
4A2
330
498
100
AcDbEntity
  8
0
100
AcDbBlockBegin
  2
*D6
 70
     1
 10
0.0
 20
0.0
 30
0.0
  3
*D6
  1

  0
LINE
  5
4C1
330
498
100
AcDbEntity
  8
dim
 62
     0
370
    -2
100
AcDbLine
 10
449.4950258152605
 20
273.5118163866919
 30
0.0
 11
453.4121437576413
 21
288.1306995668971
 31
0.0
  0
LINE
  5
4C2
330
498
100
AcDbEntity
  8
dim
 62
     0
370
    -2
100
AcDbLine
 10
401.198734500807
 20
286.4527686418178
 30
0.0
 11
405.1158524431878
 21
301.071651822023
 31
0.0
  0
LINE
  5
4C3
330
498
100
AcDbEntity
  8
dim
 62
     0
370
    -2
100
AcDbLine
 10
450.6738053855404
 20
287.570339896792
 30
0.0
 11
407.2071432025323
 21
299.2171969264053
 31
0.0
  0
SOLID
  5
4C4
330
498
100
AcDbEntity
  8
dim
 62
     0
100
AcDbTrace
 10
450.7816466543332
 20
287.9728089910791
 30
0.0
 11
450.5659641167477
 21
287.1678708025049
 31
0.0
 12
453.0886199512631
 22
286.9232922840357
 32
0.0
 13
453.0886199512631
 23
286.9232922840357
 33
0.0
  0
SOLID
  5
4C5
330
498
100
AcDbEntity
  8
dim
 62
     0
100
AcDbTrace
 10
407.3149844713251
 20
299.6196660206925
 30
0.0
 11
407.0993019337396
 21
298.8147278321183
 31
0.0
 12
404.7923286368097
 22
299.8642445391616
 32
0.0
 13
404.7923286368097
 23
299.8642445391616
 33
0.0
  0
MTEXT
  5
4C6
330
498
100
AcDbEntity
  8
dim
 62
     0
100
AcDbMText
 10
429.5581537135343
 20
295.6989793879547
 30
0.0
 40
2.5
 41
0.0
 71
     5
 72
     1
  1
50mm Over-hang
 11
0.9659258262890688
 21
-0.2588190451025187
 31
0.0
 73
     1
 44
1.0
1001
ACAD
1000
MTEXTBEGIN
1070
    73
1070
     1
1070
    44
1040
1.0
1070
    74
1070
     0
1000
MTEXTEND
  0
POINT
  5
4C7
330
498
100
AcDbEntity
  8
Defpoints
 62
     0
100
AcDbPoint
 10
449.3332639120714
 20
272.9081127452612
 30
0.0
  0
POINT
  5
4C8
330
498
100
AcDbEntity
  8
Defpoints
 62
     0
100
AcDbPoint
 10
401.0369725976179
 20
285.8490650003871
 30
0.0
  0
POINT
  5
4C9
330
498
100
AcDbEntity
  8
Defpoints
 62
     0
100
AcDbPoint
 10
404.7923286368097
 20
299.8642445391616
 30
0.0
  0
ENDBLK
  5
4A3
330
498
100
AcDbEntity
  8
0
100
AcDbBlockEnd
  0
BLOCK
  5
64B
330
641
100
AcDbEntity
  8
0
100
AcDbBlockBegin
  2
*D7
 70
     1
 10
0.0
 20
0.0
 30
0.0
  3
*D7
  1

  0
LINE
  5
671
330
641
100
AcDbEntity
  8
dim
 62
     0
370
    -2
100
AcDbLine
 10
397.491055243728
 20
258.6824090462987
 30
0.0
 11
412.0969765351457
 21
254.8037876925158
 31
0.0
  0
LINE
  5
672
330
641
100
AcDbEntity
  8
dim
 62
     0
370
    -2
100
AcDbLine
 10
394.7037720449226
 20
248.1861952359622
 30
0.0
 11
409.3096933363403
 21
244.3075738821793
 31
0.0
  0
LINE
  5
673
330
641
100
AcDbEntity
  8
dim
 62
     0
370
    -2
100
AcDbLine
 10
410.2472078550597
 20
252.708350785765
 30
0.0
 11
408.7432050189912
 21
247.0446509702985
 31
0.0
  0
SOLID
  5
674
330
641
100
AcDbEntity
  8
dim
 62
     0
100
AcDbTrace
 10
409.8444983554872
 20
252.8152908159931
 30
0.0
 11
410.6499173546323
 21
252.6014107555369
 31
0.0
 12
410.8888480364282
 22
255.1246077832
 32
0.0
 13
410.8888480364282
 23
255.1246077832
 33
0.0
  0
SOLID
  5
675
330
641
100
AcDbEntity
  8
dim
 62
     0
100
AcDbTrace
 10
408.3404955194188
 20
247.1515910005266
 30
0.0
 11
409.1459145185638
 21
246.9377109400704
 31
0.0
 12
408.1015648376228
 22
244.6283939728636
 32
0.0
 13
408.1015648376228
 23
244.6283939728636
 33
0.0
  0
MTEXT
  5
676
330
641
100
AcDbEntity
  8
dim
 62
     0
100
AcDbMText
 10
406.310735373715
 20
250.7221413015439
 30
0.0
 40
2.5
 41
0.0
 71
     5
 72
     1
  1
10mm
 11
0.2566560725473824
 21
0.9665027989739877
 31
0.0
 73
     1
 44
1.0
1001
ACAD
1000
MTEXTBEGIN
1070
    73
1070
     1
1070
    44
1040
1.0
1070
    74
1070
     0
1000
MTEXTEND
  0
POINT
  5
677
330
641
100
AcDbEntity
  8
Defpoints
 62
     0
100
AcDbPoint
 10
396.8869909943693
 20
258.8428190916408
 30
0.0
  0
POINT
  5
678
330
641
100
AcDbEntity
  8
Defpoints
 62
     0
100
AcDbPoint
 10
394.0997077955639
 20
248.3466052813043
 30
0.0
  0
POINT
  5
679
330
641
100
AcDbEntity
  8
Defpoints
 62
     0
100
AcDbPoint
 10
408.1015648376228
 20
244.6283939728636
 30
0.0
  0
ENDBLK
  5
64C
330
641
100
AcDbEntity
  8
0
100
AcDbBlockEnd
  0
BLOCK
  5
6EA
330
6E7
100
AcDbEntity
  8
0
100
AcDbBlockBegin
  2
shingle
 70
     0
 10
0.0
 20
0.0
 30
0.0
  3
shingle
  1

  0
LINE
  5
6EB
330
6E7
100
AcDbEntity
  8
0.13
100
AcDbLine
 10
2207.062436730225
 20
929.8168642686144
 30
0.0
 11
2207.062436730226
 21
931.3168971615478
 31
0.0
  0
LINE
  5
6EC
330
6E7
100
AcDbEntity
  8
0.13
100
AcDbLine
 10
2207.062436730226
 20
931.3168971615478
 30
0.0
 11
2358.062436730225
 21
930.3168971615479
 31
0.0
  0
LINE
  5
6ED
102
{ACAD_REACTORS
330
6F5
102
}
330
6E7
100
AcDbEntity
  8
0.13
100
AcDbLine
 10
2358.062436730225
 20
930.3168971615479
 30
0.0
 11
2358.062436730225
 21
928.0668971615479
 31
0.0
  0
LINE
  5
6EE
102
{ACAD_REACTORS
330
6F5
102
}
330
6E7
100
AcDbEntity
  8
0.13
100
AcDbLine
 10
2507.062436730225
 20
928.0668971615478
 30
0.0
 11
2507.062436730226
 21
927.3168971615477
 31
0.0
  0
LINE
  5
6EF
102
{ACAD_REACTORS
330
6F5
102
}
330
6E7
100
AcDbEntity
  8
0.13
100
AcDbLine
 10
2507.062436730226
 20
927.3168971615477
 30
0.0
 11
2356.062436730225
 21
927.3168971615479
 31
0.0
  0
LINE
  5
6F0
102
{ACAD_REACTORS
330
6F5
102
}
330
6E7
100
AcDbEntity
  8
0.13
100
AcDbLine
 10
2356.062436730225
 20
927.3168971615479
 30
0.0
 11
2356.062436730225
 21
928.8301093017269
 31
0.0
  0
LINE
  5
6F1
102
{ACAD_REACTORS
330
6F5
102
}
330
6E7
100
AcDbEntity
  8
0.13
100
AcDbLine
 10
2207.062436730225
 20
929.8168642686144
 30
0.0
 11
2358.05250317322
 21
928.8169300537601
 31
0.0
  0
HATCH
  5
6F2
330
6E7
100
AcDbEntity
  8
0.09
100
AcDbHatch
 10
0.0
 20
0.0
 30
0.0
210
0.0
220
0.0
230
1.0
  2
SOLID
 70
     1
 71
     0
 91
        1
 92
        7
 72
     0
 73
     1
 93
        4
 10
2358.062436730225
 20
930.3168971615479
 10
2207.062436730226
 20
931.3168971615478
 10
2207.062436730225
 20
929.8168642686141
 10
2358.062436730225
 20
928.8168642686143
 97
        0
 75
     0
 76
     1
 47
0.1913470343855104
 98
        1
 10
2270.164505482017
 20
930.0187568677419
  0
HATCH
  5
6F3
330
6E7
100
AcDbEntity
  8
0.05
100
AcDbHatch
 10
0.0
 20
0.0
 30
0.0
210
0.0
220
0.0
230
1.0
  2
AR-SAND
 70
     0
 71
     0
 91
        1
 92
        7
 72
     0
 73
     1
 93
        4
 10
2358.062436730225
 20
930.3168971615479
 10
2207.062436730226
 20
931.3168971615478
 10
2207.062436730225
 20
929.8168642686141
 10
2358.062436730225
 20
928.8168642686143
 97
        0
 75
     0
 76
     1
 52
0.0
 41
0.05
 77
     0
 78
     4
 53
37.50000000000002
 43
2083.441267449319
 44
495.184158424195
 45
-0.0800015647992023
 46
2.447066186646711
 79
     6
 49
0.0
 49
-1.9304
 49
0.0
 49
-2.159
 49
0.0
 49
-2.06375
 53
7.499999999999999
 43
2083.441267449319
 44
495.184158424195
 45
2.247616415690013
 46
3.584125502841771
 79
     6
 49
0.0
 49
-1.0414
 49
0.0
 49
-1.7399
 49
0.0
 49
-0.6667500000000001
 53
327.5
 43
2081.879167449319
 44
495.184158424195
 45
3.95496185120729
 46
0.0071859233927285
 79
     6
 49
0.0
 49
-0.6349999999999999
 49
0.0
 49
-2.285999999999999
 49
0.0
 49
-2.984499999999999
 53
317.5
 43
2081.879167449319
 44
495.184158424195
 45
3.817782262361486
 46
1.114646616286081
 79
     6
 49
0.0
 49
-0.3175
 49
0.0
 49
-1.498599999999999
 49
0.0
 49
-1.7145
 47
0.1913470343855104
 98
        1
 10
2272.846028478551
 20
930.0187568677419
  0
LINE
  5
6F4
102
{ACAD_REACTORS
330
6F5
102
}
330
6E7
100
AcDbEntity
  8
0.13
100
AcDbLine
 10
2507.062436730225
 20
928.0668971615478
 30
0.0
 11
2358.062436730225
 21
928.0668971615479
 31
0.0
  0
HATCH
  5
6F5
330
6E7
100
AcDbEntity
  8
0.05
100
AcDbHatch
 10
0.0
 20
0.0
 30
0.0
210
0.0
220
0.0
230
1.0
  2
SOLID
 70
     1
 71
     1
 91
        1
 92
        7
 72
     0
 73
     1
 93
        6
 10
2507.062436730225
 20
928.0668971615478
 10
2358.062436730225
 20
928.0668971615479
 10
2358.062436730225
 20
928.8168642686143
 10
2356.062436730225
 20
928.830109301727
 10
2356.062436730225
 20
927.3168971615479
 10
2507.062436730226
 20
927.3168971615477
 97
        6
330
6F4
330
6ED
330
6F1
330
6F0
330
6EF
330
6EE
 75
     0
 76
     1
 47
0.1818980469777868
 98
        1
 10
2415.507870061291
 20
927.4697748740234
  0
ENDBLK
  5
6F6
330
6E7
100
AcDbEntity
  8
0
100
AcDbBlockEnd
  0
ENDSEC
  0
SECTION
  2
ENTITIES
  0
LINE
  5
231
330
1F
100
AcDbEntity
  8
0.20
100
AcDbLine
 10
209.3902617563329
 20
312.8716561627526
 30
0.0
 11
441.3191646995839
 21
250.7264939176724
 31
0.0
  0
LINE
  5
232
330
1F
100
AcDbEntity
  8
0.20
100
AcDbLine
 10
209.3902617563343
 20
157.5802291012397
 30
0.0
 11
342.0228733851299
 21
122.0414279252732
 31
0.0
  0
LINE
  5
233
330
1F
100
AcDbEntity
  8
0.20
100
AcDbLine
 10
209.3902617563328
 20
328.4007988689042
 30
0.0
 11
445.2014503761221
 21
265.2153813120084
 31
0.0
  0
ARC
  5
23B
330
1F
100
AcDbEntity
  8
0.13
100
AcDbCircle
 10
216.8669980036461
 20
298.0632906817764
 30
0.0
 40
27.36867961903157
100
AcDbArc
 50
11.86742237797716
 51
74.9330367100172
  0
ARC
  5
23C
330
1F
100
AcDbEntity
  8
0.13
100
AcDbCircle
 10
236.1855145294271
 20
292.8869097797258
 30
0.0
 40
27.36867961903157
100
AcDbArc
 50
11.86742237797716
 51
75.06696328872064
  0
ARC
  5
23D
330
1F
100
AcDbEntity
  8
0.13
100
AcDbCircle
 10
255.5040310552081
 20
287.7105288776754
 30
0.0
 40
27.36867961903157
100
AcDbArc
 50
11.86742237797716
 51
75.06696328872064
  0
ARC
  5
23E
330
1F
100
AcDbEntity
  8
0.13
100
AcDbCircle
 10
274.82254758099
 20
282.534147975625
 30
0.0
 40
27.36867961903157
100
AcDbArc
 50
11.86742237797716
 51
75.06696328872064
  0
ARC
  5
23F
330
1F
100
AcDbEntity
  8
0.13
100
AcDbCircle
 10
294.1410641067719
 20
277.3577670735747
 30
0.0
 40
27.36867961903157
100
AcDbArc
 50
11.86742237797716
 51
75.06696328872064
  0
ARC
  5
240
330
1F
100
AcDbEntity
  8
0.13
100
AcDbCircle
 10
313.4595806325529
 20
272.1813861715243
 30
0.0
 40
27.36867961903157
100
AcDbArc
 50
11.86742237797716
 51
75.06696328872064
  0
ARC
  5
241
330
1F
100
AcDbEntity
  8
0.13
100
AcDbCircle
 10
332.7780971583338
 20
267.0050052694737
 30
0.0
 40
27.36867961903157
100
AcDbArc
 50
11.86742237797716
 51
75.06696328872064
  0
ARC
  5
245
330
1F
100
AcDbEntity
  8
0.13
100
AcDbCircle
 10
410.0521632614595
 20
246.2994816612722
 30
0.0
 40
27.36867961903157
100
AcDbArc
 50
11.86742237797716
 51
75.06696328872064
  0
ARC
  5
246
330
1F
100
AcDbEntity
  8
0.13
100
AcDbCircle
 10
429.3706797872414
 20
241.1231007592219
 30
0.0
 40
27.36867961903157
100
AcDbArc
 50
55.67766939663878
 51
75.06696328872064
  0
HATCH
  5
247
102
{ACAD_XDICTIONARY
360
B45
102
}
330
1F
100
AcDbEntity
  8
0.20
 62
   254
100
AcDbHatch
 10
0.0
 20
0.0
 30
0.0
210
0.0
220
0.0
230
1.0
  2
SOLID
 70
     1
 71
     0
 91
        1
 92
        7
 72
     0
 73
     1
 93
       10
 10
441.4392830364431
 20
243.447375043442
 10
447.6509401189042
 20
266.6295948743795
 10
396.4568713255841
 20
280.3470042648129
 10
396.1980522804816
 20
279.381078438524
 10
446.4261952475132
 20
265.922488093193
 10
441.7674524356676
 20
248.5358232199896
 10
399.2667160789484
 20
259.9238612045006
 10
399.007897033845
 20
258.9579353782119
 10
441.5086333905651
 20
247.5698973937007
 10
440.4733572101551
 20
243.7061940885444
 97
        0
 75
     0
 76
     1
 47
0.1520112486098737
 98
        1
 10
457.9268062878107
 20
263.6180839787906
  0
LWPOLYLINE
  5
248
330
1F
100
AcDbEntity
  8
0.30
100
AcDbPolyline
 90
       11
 70
     0
 43
0.0
 10
447.6509401189042
 20
266.6295948743795
 10
396.456871325584
 20
280.3470042648129
 10
396.1980522804816
 20
279.3810784385239
 10
446.4261952475131
 20
265.922488093193
 10
441.7674524356676
 20
248.5358232199896
 10
399.2667160789484
 20
259.9238612045006
 10
399.007897033845
 20
258.9579353782119
 10
441.5086333905652
 20
247.5698973937007
 10
440.473357210155
 20
243.7061940885444
 10
441.4392830364432
 20
243.447375043442
 10
447.6509401189042
 20
266.6295948743795
  0
LWPOLYLINE
  5
24B
330
1F
100
AcDbEntity
  8
0.50
100
AcDbPolyline
 90
        5
 70
     0
 43
0.0
 10
394.5228733851304
 20
230.4802944494057
 10
394.5228733851304
 20
155.4802944494057
 10
519.5228733851304
 20
155.4802944494057
 10
549.5228733851304
 20
274.2784392578694
 42
0.6998610900006126
 10
536.3314493194565
 20
273.4657131856918
  0
LWPOLYLINE
  5
24C
330
1F
100
AcDbEntity
  8
0.20
100
AcDbPolyline
 90
        6
 70
     0
 43
0.0
 10
343.0228733851304
 20
58.66082358156768
 10
343.0228733851304
 20
249.6608235815677
 10
393.0228733851304
 20
249.6608235815677
 10
393.0228733851304
 20
39.66082358156768
 10
343.0228733851304
 20
39.66082358156768
 10
343.0228733851304
 20
51.66082358156767
  0
LINE
  5
24D
330
1F
100
AcDbEntity
  8
0.20
100
AcDbLine
 10
342.0228733851304
 20
277.3328549867855
 30
0.0
 11
342.0228733851299
 21
122.0414279252732
 31
0.0
  0
LINE
  5
24E
330
1F
100
AcDbEntity
  8
0.13
100
AcDbLine
 10
393.0228733851304
 20
249.6608235815677
 30
0.0
 11
347.5466829089398
 21
58.66082358156766
 31
0.0
  0
LINE
  5
24F
102
{ACAD_REACTORS
330
258
102
}
330
1F
100
AcDbEntity
  8
0.13
100
AcDbLine
 10
393.0228733851304
 20
39.66082358156768
 30
0.0
 11
343.0228733851304
 21
249.6608235815677
 31
0.0
  0
LWPOLYLINE
  5
250
330
1F
100
AcDbEntity
  8
0.20
100
AcDbPolyline
 90
        4
 70
     1
 43
0.0
 10
327.0537217647379
 20
281.3438270748487
 10
283.5870595817301
 20
292.9906841044621
 10
260.2933455225034
 20
206.0573597384458
 10
303.7600077055108
 20
194.4105027088325
  0
LINE
  5
251
330
1F
100
AcDbEntity
  8
0.13
100
AcDbLine
 10
260.2933455225034
 20
206.0573597384458
 30
0.0
 11
327.0537217647379
 21
281.3438270748487
 31
0.0
  0
MTEXT
  5
252
330
1F
100
AcDbEntity
  8
0.20
100
AcDbMText
 10
485.8057589767859
 20
354.2695573241899
 30
0.0
 40
4.0
 41
79.0
 71
     1
 72
     5
  1
Pabco Asphalt Shingles over waterproof roofing underlay on 15mm plywood.
 73
     1
 44
1.0
1001
ACAD
1000
MTEXTBEGIN
1070
    73
1070
     1
1070
    44
1040
1.0
1070
    74
1070
     0
1000
MTEXTEND
  0
MTEXT
  5
253
330
1F
100
AcDbEntity
  8
0.20
100
AcDbMText
 10
485.8057589767859
 20
136.4473329751813
 30
0.0
 40
4.0
 41
79.0
 71
     1
 72
     5
  1
Gutter/Spouting
 73
     1
 44
1.0
1001
ACAD
1000
MTEXTBEGIN
1070
    73
1070
     1
1070
    44
1040
1.0
1070
    74
1070
     0
1000
MTEXTEND
  0
MTEXT
  5
254
330
1F
100
AcDbEntity
  8
0.20
100
AcDbMText
 10
485.8057589767859
 20
118.9030669592891
 30
0.0
 40
4.0
 41
41.65925925925925
 71
     1
 72
     5
  1
Fascia
 73
     1
 44
1.0
1001
ACAD
1000
MTEXTBEGIN
1070
    73
1070
     1
1070
    44
1040
1.0
1070
    74
1070
     0
1000
MTEXTEND
  0
LINE
  5
255
330
1F
100
AcDbEntity
  8
0.20
100
AcDbLine
 10
327.0537217647379
 20
281.3438270748487
 30
0.0
 11
303.7600077055108
 21
194.4105027088325
 31
0.0
  0
DIMENSION
  5
256
102
{ACAD_XDICTIONARY
360
257
102
}
102
{ACAD_REACTORS
330
258
102
}
330
1F
100
AcDbEntity
  8
dim
100
AcDbDimension
  2
*D0
 10
342.4725550951646
 20
248.4421816209884
 30
0.0
 11
333.2108595116755
 21
257.0170339676246
 31
0.0
 70
    33
  1
20mm\Pminimum
 71
     5
 42
23.94006763158322
  3
ISO-25
100
AcDbAlignedDimension
 13
321.2043568593489
 23
259.5137000559267
 33
0.0
 14
343.0228733851304
 24
249.6608235815677
 34
0.0
  0
MTEXT
  5
25A
330
1F
100
AcDbEntity
  8
0.20
100
AcDbMText
 10
223.563783332421
 20
256.4365344013701
 30
0.0
 40
4.0
 41
79.0
 71
     1
 72
     5
  1
ROOF FRAMES
 11
0.9659258262890682
 21
-0.2588190451025207
 31
0.0
 73
     1
 44
1.0
1001
ACAD
1000
MTEXTBEGIN
1070
    73
1070
     1
1070
    44
1040
1.0
1070
    74
1070
     0
1000
MTEXTEND
  0
MTEXT
  5
25B
330
1F
100
AcDbEntity
  8
0.20
100
AcDbMText
 10
485.8057589767859
 20
249.360296517938
 30
0.0
 40
4.0
 41
44.0
 71
     1
 72
     5
  1
PVC Channel
 73
     1
 44
1.0
1001
ACAD
1000
MTEXTBEGIN
1070
    73
1070
     1
1070
    44
1040
1.0
1070
    74
1070
     0
1000
MTEXTEND
  0
MTEXT
  5
25C
330
1F
100
AcDbEntity
  8
0.20
100
AcDbMText
 10
485.318089278981
 20
273.3321828348291
 30
0.0
 40
4.0
 41
48.01568627450979
 71
     1
 72
     5
  1
Peel & Stick  (P&S) starter course
 73
     1
 44
1.0
1001
ACAD
1000
MTEXTBEGIN
1070
    73
1070
     1
1070
    44
1040
1.0
1070
    74
1070
     0
1000
MTEXTEND
  0
LEADER
  5
25D
330
1F
100
AcDbEntity
  8
dim
100
AcDbLeader
  3
Rockcote
 76
     2
 10
447.9097591640066
 20
267.595520700668
 30
0.0
 10
481.9637992490861
 20
267.595520700668
 30
0.0
211
-1.0
221
0.0000000000000001
231
0.0
  0
LEADER
  5
25E
330
1F
100
AcDbEntity
  8
dim
100
AcDbLeader
  3
Rockcote
 76
     2
 10
442.3982369093496
 20
247.0262396192434
 30
0.0
 10
482.191325381048
 20
247.0262396192434
 30
0.0
211
-1.0
221
0.0000000000000001
231
0.0
  0
LEADER
  5
25F
330
1F
100
AcDbEntity
  8
dim
100
AcDbLeader
  3
ISO-25
 76
     3
 10
467.5031716321818
 20
155.4802944494057
 30
0.0
 10
467.5494667467074
 20
133.6949146071601
 30
0.0
 10
482.191325381048
 20
133.6949146071601
 30
0.0
1001
ACAD
1000
DSTYLE
1002
{
1070
    41
1040
5.0
1002
}
  0
LEADER
  5
260
330
1F
100
AcDbEntity
  8
dim
100
AcDbLeader
  3
Rockcote
 76
     2
 10
393.0228733851304
 20
117.0925196026528
 30
0.0
 10
482.191325381048
 20
117.0925196026528
 30
0.0
211
-1.0
221
0.0000000000000001
231
0.0
  0
MTEXT
  5
261
330
1F
100
AcDbEntity
  8
0.20
100
AcDbMText
 10
300.494201528772
 20
180.0471814956699
 30
0.0
 40
4.0
 41
79.0
 71
     3
 72
     5
  1
Noggings must be provided by the main contractor as per this drawing, to allow for fixing of plywood.
 73
     1
 44
1.0
1001
ACAD
1000
MTEXTBEGIN
1070
    73
1070
     1
1070
    44
1040
1.0
1070
    74
1070
     0
1000
MTEXTEND
  0
MTEXT
  5
263
102
{ACAD_XDICTIONARY
360
B47
102
}
330
1F
100
AcDbEntity
  8
0.20
100
AcDbMText
 10
457.7819026546844
 20
96.85920016574357
 30
0.0
 40
4.0
 41
107.4074074074074
 71
     1
 72
     5
  3
Plywood shall over-hang over the fascia by 50mm.\P\PRoofing Underlay MUST have 100mm of Peel & Stick Starter Course Exposure for water-tight adhesion of Asphalt Shingles directly onto P & S Starter Course.\P\PAll gutters/spoutings shall be installed 
  1
by the main contractor as per manufacturer's specifications.\P\PAll carpentry works and materials shall be provided by the main contractor, as per NZBC standards.\P\PFor roofing underlay & plywood installations, refer to Installation Guide bulletin.
 73
     1
 44
1.0
1001
ACAD
1000
MTEXTBEGIN
1070
    73
1070
     1
1070
    44
1040
1.0
1070
    74
1070
     0
1000
MTEXTEND
  0
ARC
  5
264
330
1F
100
AcDbEntity
  8
0
100
AcDbCircle
 10
436.8386812077928
 20
87.79626857379037
 30
0.0
 40
11.10339015422855
100
AcDbArc
 50
105.6736175970291
 51
70.61330301493396
  0
ARC
  5
265
330
1F
100
AcDbEntity
  8
0
100
AcDbCircle
 10
436.8386812077928
 20
87.79626857379037
 30
0.0
 40
9.603390154228552
100
AcDbArc
 50
106.5933313325856
 51
69.05604189485034
  0
LINE
  5
266
330
1F
100
AcDbEntity
  8
0
100
AcDbLine
 10
435.9497255735909
 20
86.28111747913624
 30
0.0
 11
438.509586333916
 21
86.28111747913624
 31
0.0
  0
LINE
  5
267
330
1F
100
AcDbEntity
  8
0
100
AcDbLine
 10
438.509586333916
 20
86.28111747913624
 30
0.0
 11
440.5243641210222
 21
98.27009377665456
 31
0.0
  0
LINE
  5
268
330
1F
100
AcDbEntity
  8
0
100
AcDbLine
 10
435.9497255735909
 20
86.28111747913624
 30
0.0
 11
433.8390211187365
 21
98.4867929887638
 31
0.0
  0
SPLINE
  5
269
330
1F
100
AcDbEntity
  8
0
100
AcDbSpline
210
0.0
220
0.0
230
1.0
 70
     8
 71
     3
 72
    14
 73
    10
 74
     8
 42
0.0000000001
 43
0.0000000001
 44
0.0000000001
 40
0.0
 40
0.0
 40
0.0
 40
0.0
 40
1.153360054429817
 40
2.128448441361596
 40
2.891481907336642
 40
5.571474202971744
 40
6.397548371861869
 40
7.165475926971381
 40
8.492053936514782
 40
8.492053936514782
 40
8.492053936514782
 40
8.492053936514782
 10
433.8390211187365
 20
98.4867929887638
 30
0.0
 10
433.9745568442651
 20
98.8512660131874
 30
0.0
 10
434.2246789138151
 20
99.52387647665304
 30
0.0
 10
435.0416555369742
 20
100.1654814533963
 30
0.0
 10
436.5307431095005
 20
100.2615084325866
 30
0.0
 10
437.9663256104783
 20
100.4979616207009
 30
0.0
 10
439.3504236698007
 20
100.0250893796753
 30
0.0
 10
440.0621024466
 20
99.32263049901516
 30
0.0
 10
440.3451150151048
 20
98.67823115179849
 30
0.0
 10
440.5243641210222
 20
98.27009377665456
 30
0.0
 11
433.8390211187365
 21
98.4867929887638
 31
0.0
 11
434.3487702454827
 21
99.52139206228743
 31
0.0
 11
435.1313812190751
 21
100.1030426673261
 31
0.0
 11
435.8845185711415
 21
100.2255342961022
 31
0.0
 11
438.5642823568664
 21
100.260530829947
 31
0.0
 11
439.3349351871152
 21
99.96305352369143
 31
0.0
 11
439.895407921128
 21
99.43809348299817
 31
0.0
 11
440.5243641210222
 21
98.27009377665456
 31
0.0
  0
CIRCLE
  5
26A
330
1F
100
AcDbEntity
  8
0
100
AcDbCircle
 10
437.1588887954817
 20
82.55457849881224
 30
0.0
 40
2.569476904230562
  0
HATCH
  5
26B
330
1F
100
AcDbEntity
  8
0
100
AcDbHatch
 10
0.0
 20
0.0
 30
0.0
210
0.0
220
0.0
230
1.0
  2
SOLID
 70
     1
 71
     0
 91
        1
 92
        7
 72
     1
 73
     1
 93
        4
 10
440.5243641210222
 20
98.27009377665456
 42
0.0
 10
440.2714574696306
 20
96.76516759153457
 42
-6.050784953660254
 10
434.0961755276412
 20
96.99973341311409
 42
0.0
 10
433.8390211187365
 20
98.4867929887638
 42
6.48575145239653
 97
        0
 75
     0
 76
     1
 47
0.1251288764846155
 98
        1
 10
426.5469830176717
 20
89.63649345257602
  0
DIMENSION
  5
26C
330
1F
100
AcDbEntity
  8
dim
100
AcDbDimension
  2
*D1
 10
457.6640723760903
 20
303.6638411596936
 30
0.0
 11
349.0782978195133
 21
333.0828355680141
 31
0.0
 70
   161
  1
225mm P & S Starter Course
 71
     5
 42
225.000868158757
  3
ISO-25
100
AcDbAlignedDimension
 13
232.3234767021061
 23
332.3498052033331
 33
0.0
 14
449.4950258152603
 24
273.5118163866919
 34
0.0
  0
LINE
  5
301
330
1F
100
AcDbEntity
  8
dim
100
AcDbLine
 10
209.3902617563328
 20
44.92563030155497
 30
0.0
 11
209.3902617563347
 21
180.4496344873322
 31
0.0
  0
LINE
  5
302
102
{ACAD_REACTORS
330
7E9
330
7E1
102
}
330
1F
100
AcDbEntity
  8
dim
100
AcDbLine
 10
209.3902617563328
 20
186.2231371792282
 30
0.0
 11
209.3902617563328
 21
339.7044751917488
 31
0.0
  0
LINE
  5
303
330
1F
100
AcDbEntity
  8
dim
100
AcDbLine
 10
214.3902617563292
 20
183.3363858332772
 30
0.0
 11
204.3902617563347
 21
183.336385833279
 31
0.0
  0
LINE
  5
304
330
1F
100
AcDbEntity
  8
dim
100
AcDbLine
 10
209.3902617563347
 20
180.4496344873326
 30
0.0
 11
214.3902617563292
 21
183.3363858332772
 31
0.0
  0
LINE
  5
305
330
1F
100
AcDbEntity
  8
dim
100
AcDbLine
 10
204.3902617563347
 20
183.336385833279
 30
0.0
 11
209.3902617563347
 21
186.2231371792289
 31
0.0
  0
LINE
  5
30A
330
1F
100
AcDbEntity
  8
0.20
100
AcDbLine
 10
353.2609686232257
 20
51.66082358156768
 30
0.0
 11
209.390261756333
 21
51.66082358156772
 31
0.0
  0
LINE
  5
30B
330
1F
100
AcDbEntity
  8
0.20
100
AcDbLine
 10
353.2609686232257
 20
51.66082358156768
 30
0.0
 11
353.2609686232257
 21
58.66082358156768
 31
0.0
  0
LINE
  5
30C
330
1F
100
AcDbEntity
  8
0.20
100
AcDbLine
 10
353.2609686232257
 20
58.66082358156768
 30
0.0
 11
209.3902617563331
 21
58.66082358156766
 31
0.0
  0
LINE
  5
30D
330
1F
100
AcDbEntity
  8
0.13
100
AcDbLine
 10
345.8800162422733
 20
51.66082358156769
 30
0.0
 11
343.0228733851304
 21
39.66082358156768
 31
0.0
  0
LINE
  5
343
330
1F
100
AcDbEntity
  8
0.20
100
AcDbLine
 10
441.3191646995835
 20
250.7264939176712
 30
0.0
 11
445.2014503761217
 21
265.2153813120072
 31
0.0
  0
ARC
  5
388
330
1F
100
AcDbEntity
  8
0.13
100
AcDbCircle
 10
197.5484814778653
 20
303.2396715838264
 30
0.0
 40
27.36867961903157
100
AcDbArc
 50
11.86742237797716
 51
64.36247195625717
  0
LEADER
  5
38B
330
1F
100
AcDbEntity
  8
dim
100
AcDbLeader
  3
ISO-25
 76
     3
 10
380.1325112240243
 20
289.379846182825
 30
0.0
 10
418.3346931981937
 20
344.7380065328687
 30
0.0
 10
482.0259833416171
 20
344.7380065328687
 30
0.0
1001
ACAD
1000
DSTYLE
1002
{
1070
    41
1040
5.0
1002
}
  0
LEADER
  5
3B8
330
1F
100
AcDbEntity
  8
dim
100
AcDbLeader
  3
ISO-25
 76
     3
 10
282.0266766140071
 20
200.2339312236391
 30
0.0
 10
267.5491825897567
 20
190.708782225572
 30
0.0
 10
267.5491825897567
 20
180.7109783289653
 30
0.0
211
-0.0000000000000002
221
-1.0
231
0.0
1001
ACAD
1000
DSTYLE
1002
{
1070
    41
1040
5.0
1002
}
  0
DIMENSION
  5
3F8
330
1F
100
AcDbEntity
  8
dim
100
AcDbDimension
  2
*D5
 10
463.5476890308486
 20
284.1226865885149
 30
0.0
 11
458.2995821256803
 21
285.5163281879176
 31
0.0
 70
   161
  1
10mm
 71
     5
 42
10.85999318520231
  3
ISO-25
100
AcDbAlignedDimension
 13
449.3332639120713
 23
272.9081127452612
 33
0.0
 14
459.8294777224078
 24
270.1208295464559
 34
0.0
1001
ACAD
1000
DSTYLE
1002
{
1070
   147
1040
2.0
1002
}
  0
DIMENSION
  5
497
330
1F
100
AcDbEntity
  8
dim
100
AcDbDimension
  2
*D6
 10
404.7923286368097
 20
299.8642445391616
 30
0.0
 11
429.5581537135343
 21
295.6989793879547
 31
0.0
 70
    33
  1
<>mm Over-hang
 71
     5
 42
50.00000000000006
  3
ISO-25
100
AcDbAlignedDimension
 13
449.3332639120714
 23
272.9081127452612
 33
0.0
 14
401.0369725976179
 24
285.8490650003872
 34
0.0
  0
DIMENSION
  5
640
330
1F
100
AcDbEntity
  8
dim
100
AcDbDimension
  2
*D7
 10
408.1015648376228
 20
244.6283939728636
 30
0.0
 11
409.4952064370255
 21
249.8765008780318
 31
0.0
 70
   161
  1
10mm
 71
     5
 42
10.85999318520231
  3
ISO-25
100
AcDbAlignedDimension
 13
396.8869909943693
 23
258.8428190916408
 33
0.0
 14
394.0997077955639
 24
248.3466052813043
 34
0.0
1001
ACAD
1000
DSTYLE
1002
{
1070
   147
1040
2.0
1002
}
  0
MTEXT
  5
693
330
1F
100
AcDbEntity
  8
0.20
100
AcDbMText
 10
486.1915655807422
 20
233.4218691565591
 30
0.0
 40
4.0
 41
61.14285714285714
 71
     1
 72
     5
  1
10mm Ventilation\PGap
 73
     1
 44
1.0
1001
ACAD
1000
MTEXTBEGIN
1070
    73
1070
     1
1070
    44
1040
1.0
1070
    74
1070
     0
1000
MTEXTEND
  0
LEADER
  5
695
330
1F
100
AcDbEntity
  8
dim
100
AcDbLeader
  3
ISO-25
 76
     3
 10
411.5211602484182
 20
244.3000881260979
 30
0.0
 10
445.4342611120059
 20
228.4669726412899
 30
0.0
 10
482.0259833416171
 20
228.4669726412899
 30
0.0
1001
ACAD
1000
DSTYLE
1002
{
1070
    41
1040
5.0
1002
}
  0
ARC
  5
787
330
1F
100
AcDbEntity
  8
0.13
100
AcDbCircle
 10
352.0966136841157
 20
261.8286243674234
 30
0.0
 40
27.36867961903157
100
AcDbArc
 50
11.86742237797716
 51
75.06696328872064
  0
ARC
  5
788
330
1F
100
AcDbEntity
  8
0.13
100
AcDbCircle
 10
371.4151302098966
 20
256.6522434653731
 30
0.0
 40
27.36867961903157
100
AcDbArc
 50
11.86742237797716
 51
75.06696328872064
  0
ARC
  5
789
330
1F
100
AcDbEntity
  8
0.13
100
AcDbCircle
 10
390.7336467356776
 20
251.4758625633225
 30
0.0
 40
27.36867961903157
100
AcDbArc
 50
11.86742237797716
 51
75.06696328872064
  0
LWPOLYLINE
  5
78A
330
1F
100
AcDbEntity
  8
0.30
100
AcDbPolyline
 90
        5
 70
     0
 43
0.0
 10
230.1882195800092
 20
324.380917136445
 10
386.6560842355701
 20
282.4554791605666
 42
0.0737120220986443
 10
391.5837475533096
 20
282.1392080833177
 42
-0.0780533547355666
 10
396.8350666168752
 20
281.7985814125447
 10
448.0391686865578
 20
268.0784836138125
  0
LINE
  5
791
330
1F
100
AcDbEntity
  8
0.15 - dashed Underlay
100
AcDbLine
 10
351.8348146253049
 20
293.3387245026739
 30
0.0
 11
209.3902617563329
 21
331.5066274101271
 31
0.0
  0
HATCH
  5
7E1
330
1F
100
AcDbEntity
  8
light grey
100
AcDbHatch
 10
0.0
 20
0.0
 30
0.0
210
0.0
220
0.0
230
1.0
  2
SOLID
 70
     1
 71
     0
 91
        1
 92
        1
 93
        4
 72
     1
 10
209.3902617563328
 20
336.1776499030087
 11
209.3902617563328
 21
334.6274524014319
 72
     1
 10
209.3902617563328
 20
334.6274524014319
 11
311.7097421710953
 21
307.9360066235675
 72
     1
 10
311.7097421710953
 20
307.9360066235675
 11
312.0979792520657
 21
309.3849271351355
 72
     1
 10
312.0979792520657
 20
309.3849271351355
 11
209.3902617563328
 21
336.1776499030087
 97
        0
 75
     0
 76
     1
 98
        1
 10
2270.164505482017
 20
930.0187568677419
  0
LINE
  5
7E3
330
1F
100
AcDbEntity
  8
0.13
100
AcDbLine
 10
311.7097421710948
 20
307.9360066235679
 30
0.0
 11
312.0979792520657
 21
309.3849271351355
 31
0.0
  0
LINE
  5
7E4
330
1F
100
AcDbEntity
  8
0.13
100
AcDbLine
 10
312.0979792520657
 20
309.3849271351355
 30
0.0
 11
209.3902617563329
 21
336.1776499030087
 31
0.0
  0
HATCH
  5
7E9
330
1F
100
AcDbEntity
  8
0.05
100
AcDbHatch
 10
0.0
 20
0.0
 30
0.0
210
0.0
220
0.0
230
1.0
  2
AR-SAND
 70
     0
 71
     0
 91
        1
 92
        1
 93
        4
 72
     1
 10
209.3902617563328
 20
336.1776499030087
 11
209.3902617563328
 21
334.6274524014319
 72
     1
 10
209.3902617563328
 20
334.6274524014319
 11
311.7097421710953
 21
307.9360066235675
 72
     1
 10
311.7097421710953
 20
307.9360066235675
 11
312.0979792520657
 21
309.3849271351355
 72
     1
 10
312.0979792520657
 20
309.3849271351355
 11
209.3902617563328
 21
336.1776499030087
 97
        0
 75
     0
 76
     1
 52
0.0
 41
0.05
 77
     0
 78
     4
 53
127.5
 43
318.6274003585975
 44
-143.8824618891974
 45
0.7106229113136566
 46
2.342978499712727
 79
     6
 49
0.0
 49
-1.9304
 49
0.0
 49
-2.159
 49
0.0
 49
-2.06375
 53
157.5
 43
318.6274003585975
 44
-143.8824618891974
 45
-1.243390803333151
 46
4.043725322321799
 79
     6
 49
0.0
 49
-1.0414
 49
0.0
 49
-1.7399
 49
0.0
 49
-0.6667500000000001
 53
197.5
 43
320.1362730918438
 44
-144.2867631195522
 45
-3.818339940238459
 46
1.030560518737139
 79
     6
 49
0.0
 49
-0.6349999999999999
 49
0.0
 49
-2.285999999999999
 49
0.0
 49
-2.984499999999999
 53
207.5
 43
320.1362730918438
 44
-144.2867631195522
 45
-3.399202713509347
 46
2.064780713410188
 79
     6
 49
0.0
 49
-0.3175
 49
0.0
 49
-1.498599999999999
 49
0.0
 49
-1.7145
 98
        1
 10
2272.846028478551
 20
930.0187568677419
  0
LINE
  5
7EB
330
1F
100
AcDbEntity
  8
0.13
100
AcDbLine
 10
311.7097421710948
 20
307.9360066235679
 30
0.0
 11
209.3902617563328
 21
334.6274524014321
 31
0.0
  0
HATCH
  5
7EC
330
1F
100
AcDbEntity
  8
light grey
100
AcDbHatch
 10
0.0
 20
0.0
 30
0.0
210
0.0
220
0.0
230
1.0
  2
SOLID
 70
     1
 71
     0
 91
        1
 92
        5
 93
        4
 72
     1
 10
312.8050860332537
 20
308.1601822637438
 11
458.9187048480043
 21
270.0444322795525
 72
     1
 10
458.9187048480043
 20
270.0444322795525
 11
458.530467767034
 21
268.5955117679843
 72
     1
 10
458.530467767034
 20
268.5955117679843
 11
312.416848952282
 21
306.7112617521764
 72
     1
 10
312.416848952282
 20
306.7112617521764
 11
312.8050860332537
 21
308.1601822637438
 97
        0
 75
     0
 76
     1
 47
0.1913470343855104
 98
        1
 10
2270.164505482017
 20
930.0187568677419
  0
HATCH
  5
7ED
330
1F
100
AcDbEntity
  8
0.05
100
AcDbHatch
 10
0.0
 20
0.0
 30
0.0
210
0.0
220
0.0
230
1.0
  2
SOLID
 70
     1
 71
     0
 91
        1
 92
        5
 93
        6
 72
     1
 10
209.3902617563328
 20
333.5407295082286
 11
209.3902617563328
 21
332.7642723729208
 72
     1
 10
209.3902617563328
 20
332.7642723729208
 11
313.9604805505239
 21
304.7447666946719
 72
     1
 10
313.9604805505239
 20
304.7447666946719
 11
314.3521286716827
 21
306.206417381525
 72
     1
 10
314.3521286716827
 20
306.206417381525
 11
312.4168489522824
 21
306.7112617521764
 72
     1
 10
312.4168489522824
 20
306.7112617521764
 11
312.2227431817726
 21
305.9868491545937
 72
     1
 10
312.2227431817726
 20
305.9868491545937
 11
209.3902617563328
 21
333.5407295082286
 97
        0
 75
     0
 76
     1
 47
0.1818980469777868
 98
        1
 10
262.6664751490658
 20
318.8915557096115
  0
LINE
  5
7EE
330
1F
100
AcDbEntity
  8
0.13
100
AcDbLine
 10
458.5304677670335
 20
268.5955117679848
 30
0.0
 11
458.9187048480043
 21
270.0444322795525
 31
0.0
  0
LINE
  5
7EF
330
1F
100
AcDbEntity
  8
0.13
100
AcDbLine
 10
458.9187048480043
 20
270.0444322795525
 30
0.0
 11
312.8050860332537
 21
308.1601822637438
 31
0.0
  0
LINE
  5
7F0
330
1F
100
AcDbEntity
  8
0.13
100
AcDbLine
 10
312.8050860332537
 20
308.1601822637438
 30
0.0
 11
312.2227431817726
 21
305.9868491545937
 31
0.0
  0
LINE
  5
7F2
330
1F
100
AcDbEntity
  8
0.13
100
AcDbLine
 10
209.3902617563328
 20
332.7642723729208
 30
0.0
 11
313.9604805505239
 21
304.7447666946719
 31
0.0
  0
LINE
  5
7F3
330
1F
100
AcDbEntity
  8
0.13
100
AcDbLine
 10
313.9604805505239
 20
304.7447666946719
 30
0.0
 11
314.3521286716825
 21
306.206417381525
 31
0.0
  0
HATCH
  5
7F4
330
1F
100
AcDbEntity
  8
0.05
100
AcDbHatch
 10
0.0
 20
0.0
 30
0.0
210
0.0
220
0.0
230
1.0
  2
AR-SAND
 70
     0
 71
     0
 91
        1
 92
        5
 93
        4
 72
     1
 10
312.8050860332537
 20
308.1601822637438
 11
458.9187048480043
 21
270.0444322795525
 72
     1
 10
458.9187048480043
 20
270.0444322795525
 11
458.530467767034
 21
268.5955117679843
 72
     1
 10
458.530467767034
 20
268.5955117679843
 11
312.416848952282
 21
306.7112617521764
 72
     1
 10
312.416848952282
 20
306.7112617521764
 11
312.8050860332537
 21
308.1601822637438
 97
        0
 75
     0
 76
     1
 52
0.0
 41
0.05
 77
     0
 78
     4
 53
127.5
 43
465.4481259545361
 44
-183.2229567447805
 45
0.7106229113136566
 46
2.342978499712727
 79
     6
 49
0.0
 49
-1.9304
 49
0.0
 49
-2.159
 49
0.0
 49
-2.06375
 53
157.5
 43
465.4481259545361
 44
-183.2229567447805
 45
-1.243390803333151
 46
4.043725322321799
 79
     6
 49
0.0
 49
-1.0414
 49
0.0
 49
-1.7399
 49
0.0
 49
-0.6667500000000001
 53
197.5
 43
466.9569986877824
 44
-183.6272579751353
 45
-3.818339940238459
 46
1.030560518737139
 79
     6
 49
0.0
 49
-0.6349999999999999
 49
0.0
 49
-2.285999999999999
 49
0.0
 49
-2.984499999999999
 53
207.5
 43
466.9569986877824
 44
-183.6272579751353
 45
-3.399202713509347
 46
2.064780713410188
 79
     6
 49
0.0
 49
-0.3175
 49
0.0
 49
-1.498599999999999
 49
0.0
 49
-1.7145
 47
0.1913470343855104
 98
        1
 10
2272.846028478551
 20
930.0187568677419
  0
LINE
  5
7F5
330
1F
100
AcDbEntity
  8
0.13
100
AcDbLine
 10
209.3902617563328
 20
333.5407295082286
 30
0.0
 11
312.2227431817726
 21
305.9868491545937
 31
0.0
  0
LINE
  5
7F6
330
1F
100
AcDbEntity
  8
0.13
100
AcDbLine
 10
458.5304677670335
 20
268.5955117679848
 30
0.0
 11
312.4264610579894
 21
306.7087543020091
 31
0.0
  0
LINE
  5
834
330
1F
100
AcDbEntity
  8
0.20
100
AcDbLine
 10
1247.194460436663
 20
298.3727580165344
 30
0.0
 11
1479.123363379914
 21
236.2275957714542
 31
0.0
  0
LINE
  5
835
330
1F
100
AcDbEntity
  8
0.20
100
AcDbLine
 10
1247.194460436665
 20
143.0813309550214
 30
0.0
 11
1379.82707206546
 21
107.5425297790549
 31
0.0
  0
LINE
  5
836
330
1F
100
AcDbEntity
  8
0.20
100
AcDbLine
 10
1247.194460436663
 20
313.9019007226859
 30
0.0
 11
1483.005649056452
 21
250.7164831657902
 31
0.0
  0
ARC
  5
837
330
1F
100
AcDbEntity
  8
0.13
100
AcDbCircle
 10
1254.671196683976
 20
283.5643925355581
 30
0.0
 40
27.36867961903157
100
AcDbArc
 50
11.86742237797716
 51
74.9330367100172
  0
ARC
  5
838
330
1F
100
AcDbEntity
  8
0.13
100
AcDbCircle
 10
1273.989713209757
 20
278.3880116335075
 30
0.0
 40
27.36867961903157
100
AcDbArc
 50
11.86742237797716
 51
75.06696328872064
  0
ARC
  5
839
330
1F
100
AcDbEntity
  8
0.13
100
AcDbCircle
 10
1293.308229735538
 20
273.2116307314572
 30
0.0
 40
27.36867961903157
100
AcDbArc
 50
11.86742237797716
 51
75.06696328872064
  0
ARC
  5
83A
330
1F
100
AcDbEntity
  8
0.13
100
AcDbCircle
 10
1312.62674626132
 20
268.0352498294068
 30
0.0
 40
27.36867961903157
100
AcDbArc
 50
11.86742237797716
 51
75.06696328872064
  0
ARC
  5
83B
330
1F
100
AcDbEntity
  8
0.13
100
AcDbCircle
 10
1331.945262787102
 20
262.8588689273564
 30
0.0
 40
27.36867961903157
100
AcDbArc
 50
11.86742237797716
 51
75.06696328872064
  0
ARC
  5
83C
330
1F
100
AcDbEntity
  8
0.13
100
AcDbCircle
 10
1351.263779312883
 20
257.682488025306
 30
0.0
 40
27.36867961903157
100
AcDbArc
 50
11.86742237797716
 51
75.06696328872064
  0
ARC
  5
83D
330
1F
100
AcDbEntity
  8
0.13
100
AcDbCircle
 10
1370.582295838664
 20
252.5061071232554
 30
0.0
 40
27.36867961903157
100
AcDbArc
 50
11.86742237797716
 51
75.06696328872064
  0
ARC
  5
83E
330
1F
100
AcDbEntity
  8
0.13
100
AcDbCircle
 10
1447.85636194179
 20
231.800583515054
 30
0.0
 40
27.36867961903157
100
AcDbArc
 50
11.86742237797716
 51
75.06696328872064
  0
ARC
  5
83F
330
1F
100
AcDbEntity
  8
0.13
100
AcDbCircle
 10
1467.174878467572
 20
226.6242026130036
 30
0.0
 40
27.36867961903157
100
AcDbArc
 50
55.67766939663878
 51
75.06696328872064
  0
HATCH
  5
840
102
{ACAD_XDICTIONARY
360
B52
102
}
330
1F
100
AcDbEntity
  8
0.20
 62
   254
100
AcDbHatch
 10
0.0
 20
0.0
 30
0.0
210
0.0
220
0.0
230
1.0
  2
SOLID
 70
     1
 71
     0
 91
        1
 92
        7
 72
     0
 73
     1
 93
       10
 10
1479.243481716773
 20
228.9484768972237
 10
1485.455138799235
 20
252.1306967281613
 10
1434.261070005914
 20
265.8481061185946
 10
1434.002250960812
 20
264.8821802923058
 10
1484.230393927843
 20
251.4235899469747
 10
1479.571651115998
 20
234.0369250737713
 10
1437.070914759279
 20
245.4249630582824
 10
1436.812095714175
 20
244.4590372319936
 10
1479.312832070896
 20
233.0709992474824
 10
1478.277555890485
 20
229.2072959423261
 97
        0
 75
     0
 76
     1
 47
0.1520112486098737
 98
        1
 10
1495.731004968141
 20
249.1191858325723
  0
LWPOLYLINE
  5
841
330
1F
100
AcDbEntity
  8
0.30
100
AcDbPolyline
 90
       11
 70
     0
 43
0.0
 10
1485.455138799235
 20
252.1306967281613
 10
1434.261070005914
 20
265.8481061185946
 10
1434.002250960812
 20
264.8821802923057
 10
1484.230393927843
 20
251.4235899469747
 10
1479.571651115998
 20
234.0369250737714
 10
1437.070914759279
 20
245.4249630582824
 10
1436.812095714175
 20
244.4590372319936
 10
1479.312832070896
 20
233.0709992474825
 10
1478.277555890485
 20
229.2072959423261
 10
1479.243481716773
 20
228.9484768972237
 10
1485.455138799235
 20
252.1306967281613
  0
LWPOLYLINE
  5
842
330
1F
100
AcDbEntity
  8
0.30
100
AcDbPolyline
 90
        5
 70
     0
 43
0.0
 10
1267.992418260339
 20
309.8820189902268
 10
1424.460282915901
 20
267.9565810143483
 42
0.0737120220986443
 10
1429.38794623364
 20
267.6403099370995
 42
-0.0780533547355666
 10
1434.639265297206
 20
267.2996832663264
 10
1485.843367366888
 20
253.5795854675943
  0
LWPOLYLINE
  5
843
330
1F
100
AcDbEntity
  8
0.50
100
AcDbPolyline
 90
        5
 70
     0
 43
0.0
 10
1432.327072065461
 20
215.9813963031875
 10
1432.327072065461
 20
140.9813963031874
 10
1557.327072065461
 20
140.9813963031874
 10
1587.327072065461
 20
259.7795411116512
 42
0.6998610900006126
 10
1574.135647999787
 20
258.9668150394735
  0
LWPOLYLINE
  5
844
330
1F
100
AcDbEntity
  8
0.20
100
AcDbPolyline
 90
        6
 70
     0
 43
0.0
 10
1380.827072065461
 20
44.16192543534942
 10
1380.827072065461
 20
235.1619254353494
 10
1430.827072065461
 20
235.1619254353494
 10
1430.827072065461
 20
25.16192543534942
 10
1380.827072065461
 20
25.16192543534942
 10
1380.827072065461
 20
37.16192543534941
  0
LINE
  5
845
330
1F
100
AcDbEntity
  8
0.20
100
AcDbLine
 10
1379.827072065461
 20
262.8339568405672
 30
0.0
 11
1379.827072065461
 21
245.1438649236437
 31
0.0
  0
LINE
  5
846
330
1F
100
AcDbEntity
  8
0.13
100
AcDbLine
 10
1430.827072065461
 20
235.1619254353494
 30
0.0
 11
1385.35088158927
 21
44.16192543534942
 31
0.0
  0
LINE
  5
847
330
1F
100
AcDbEntity
  8
0.13
100
AcDbLine
 10
1383.684214922604
 20
37.16192543534942
 30
0.0
 11
1380.827072065461
 21
25.16192543534942
 31
0.0
  0
LINE
  5
848
330
1F
100
AcDbEntity
  8
0.13
100
AcDbLine
 10
1430.827072065461
 20
25.16192543534942
 30
0.0
 11
1380.827072065461
 21
235.1619254353494
 31
0.0
  0
LWPOLYLINE
  5
849
330
1F
100
AcDbEntity
  8
0.20
100
AcDbPolyline
 90
        4
 70
     1
 43
0.0
 10
1364.857920445068
 20
266.8449289286304
 10
1321.391258262061
 20
278.4917859582438
 10
1298.097544202834
 20
191.5584615922275
 10
1341.564206385841
 20
179.9116045626142
  0
LINE
  5
84A
330
1F
100
AcDbEntity
  8
0.13
100
AcDbLine
 10
1298.097544202834
 20
191.5584615922275
 30
0.0
 11
1364.857920445068
 21
266.8449289286304
 31
0.0
  0
LINE
  5
84E
330
1F
100
AcDbEntity
  8
0.20
100
AcDbLine
 10
1364.857920445068
 20
266.8449289286304
 30
0.0
 11
1341.564206385841
 21
179.9116045626142
 31
0.0
  0
LINE
  5
864
330
1F
100
AcDbEntity
  8
dim
100
AcDbLine
 10
1247.194460436663
 20
20.38372162065503
 30
0.0
 11
1247.194460436665
 21
165.9507363411139
 31
0.0
  0
LINE
  5
865
330
1F
100
AcDbEntity
  8
dim
100
AcDbLine
 10
1247.194460436663
 20
171.72423903301
 30
0.0
 11
1247.194460436663
 21
330.1754884778934
 31
0.0
  0
LINE
  5
866
330
1F
100
AcDbEntity
  8
dim
100
AcDbLine
 10
1252.194460436659
 20
168.8374876870589
 30
0.0
 11
1242.194460436665
 21
168.8374876870607
 31
0.0
  0
LINE
  5
867
330
1F
100
AcDbEntity
  8
dim
100
AcDbLine
 10
1247.194460436665
 20
165.9507363411144
 30
0.0
 11
1252.194460436659
 21
168.8374876870589
 31
0.0
  0
LINE
  5
868
330
1F
100
AcDbEntity
  8
dim
100
AcDbLine
 10
1242.194460436665
 20
168.8374876870607
 30
0.0
 11
1247.194460436665
 21
171.7242390330107
 31
0.0
  0
LINE
  5
869
330
1F
100
AcDbEntity
  8
0.20
100
AcDbLine
 10
1391.065167303556
 20
37.16192543534942
 30
0.0
 11
1247.194460436663
 21
37.16192543534948
 31
0.0
  0
LINE
  5
86A
330
1F
100
AcDbEntity
  8
0.20
100
AcDbLine
 10
1391.065167303556
 20
37.16192543534942
 30
0.0
 11
1391.065167303556
 21
44.16192543534942
 31
0.0
  0
LINE
  5
86B
330
1F
100
AcDbEntity
  8
0.20
100
AcDbLine
 10
1391.065167303556
 20
44.16192543534942
 30
0.0
 11
1247.194460436663
 21
44.16192543534942
 31
0.0
  0
LINE
  5
86C
330
1F
100
AcDbEntity
  8
0.20
100
AcDbLine
 10
1479.123363379914
 20
236.2275957714529
 30
0.0
 11
1483.005649056452
 21
250.716483165789
 31
0.0
  0
LINE
  5
86D
330
1F
100
AcDbEntity
  8
0.15 - dashed Underlay
100
AcDbLine
 10
1389.639013305635
 20
278.8398263564557
 30
0.0
 11
1247.194460436663
 21
317.0077292639088
 31
0.0
  0
ARC
  5
86E
330
1F
100
AcDbEntity
  8
0.13
100
AcDbCircle
 10
1235.352680158195
 20
288.740773437608
 30
0.0
 40
27.36867961903157
100
AcDbArc
 50
11.86742237797716
 51
64.36247195625717
  0
ARC
  5
876
330
1F
100
AcDbEntity
  8
0.13
100
AcDbCircle
 10
1389.900812364446
 20
247.3297262212052
 30
0.0
 40
27.36867961903157
100
AcDbArc
 50
11.86742237797716
 51
75.06696328872064
  0
ARC
  5
877
330
1F
100
AcDbEntity
  8
0.13
100
AcDbCircle
 10
1409.219328890227
 20
242.1533453191548
 30
0.0
 40
27.36867961903157
100
AcDbArc
 50
11.86742237797716
 51
75.06696328872064
  0
ARC
  5
878
330
1F
100
AcDbEntity
  8
0.13
100
AcDbCircle
 10
1428.537845416008
 20
236.9769644171042
 30
0.0
 40
27.36867961903157
100
AcDbArc
 50
11.86742237797716
 51
75.06696328872064
  0
HATCH
  5
879
330
1F
100
AcDbEntity
  8
light grey
100
AcDbHatch
 10
0.0
 20
0.0
 30
0.0
210
0.0
220
0.0
230
1.0
  2
SOLID
 70
     1
 71
     0
 91
        1
 92
        5
 93
        4
 72
     1
 10
1350.609284713584
 20
293.6612841175255
 11
1496.722903528335
 21
255.5455341333342
 72
     1
 10
1496.722903528335
 20
255.5455341333342
 11
1496.334666447364
 21
254.0966136217661
 72
     1
 10
1496.334666447364
 20
254.0966136217661
 11
1350.221047632612
 21
292.2123636059581
 72
     1
 10
1350.221047632612
 20
292.2123636059581
 11
1350.609284713584
 21
293.6612841175255
 97
        0
 75
     0
 76
     1
 47
0.1913470343855104
 98
        1
 10
3307.968704162348
 20
915.5198587215236
  0
HATCH
  5
87A
330
1F
100
AcDbEntity
  8
0.05
100
AcDbHatch
 10
0.0
 20
0.0
 30
0.0
210
0.0
220
0.0
230
1.0
  2
SOLID
 70
     1
 71
     0
 91
        1
 92
        5
 93
        6
 72
     1
 10
1247.194460436663
 20
319.0418313620103
 11
1247.194460436663
 21
318.2653742267026
 72
     1
 10
1247.194460436663
 20
318.2653742267026
 11
1351.764679230854
 21
290.2458685484536
 72
     1
 10
1351.764679230854
 20
290.2458685484536
 11
1352.156327352013
 21
291.7075192353067
 72
     1
 10
1352.156327352013
 20
291.7075192353067
 11
1350.221047632613
 21
292.2123636059581
 72
     1
 10
1350.221047632613
 20
292.2123636059581
 11
1350.026941862103
 21
291.4879510083755
 72
     1
 10
1350.026941862103
 20
291.4879510083755
 11
1247.194460436663
 21
319.0418313620103
 97
        0
 75
     0
 76
     1
 47
0.1818980469777868
 98
        1
 10
1300.470673829396
 20
304.3926575633932
  0
LINE
  5
87B
330
1F
100
AcDbEntity
  8
0.13
100
AcDbLine
 10
1496.334666447364
 20
254.0966136217666
 30
0.0
 11
1496.722903528335
 21
255.5455341333342
 31
0.0
  0
LINE
  5
87C
330
1F
100
AcDbEntity
  8
0.13
100
AcDbLine
 10
1496.722903528335
 20
255.5455341333342
 30
0.0
 11
1350.609284713584
 21
293.6612841175255
 31
0.0
  0
LINE
  5
87D
330
1F
100
AcDbEntity
  8
0.13
100
AcDbLine
 10
1350.609284713584
 20
293.6612841175255
 30
0.0
 11
1350.026941862103
 21
291.4879510083755
 31
0.0
  0
LINE
  5
87E
330
1F
100
AcDbEntity
  8
0.13
100
AcDbLine
 10
1247.194460436663
 20
318.2653742267024
 30
0.0
 11
1351.764679230854
 21
290.2458685484536
 31
0.0
  0
LINE
  5
87F
330
1F
100
AcDbEntity
  8
0.13
100
AcDbLine
 10
1351.764679230854
 20
290.2458685484536
 30
0.0
 11
1352.156327352013
 21
291.7075192353067
 31
0.0
  0
HATCH
  5
880
330
1F
100
AcDbEntity
  8
0.05
100
AcDbHatch
 10
0.0
 20
0.0
 30
0.0
210
0.0
220
0.0
230
1.0
  2
AR-SAND
 70
     0
 71
     0
 91
        1
 92
        5
 93
        4
 72
     1
 10
1350.609284713584
 20
293.6612841175255
 11
1496.722903528335
 21
255.5455341333342
 72
     1
 10
1496.722903528335
 20
255.5455341333342
 11
1496.334666447364
 21
254.0966136217661
 72
     1
 10
1496.334666447364
 20
254.0966136217661
 11
1350.221047632612
 21
292.2123636059581
 72
     1
 10
1350.221047632612
 20
292.2123636059581
 11
1350.609284713584
 21
293.6612841175255
 97
        0
 75
     0
 76
     1
 52
0.0
 41
0.05
 77
     0
 78
     4
 53
127.5
 43
1503.252324634867
 44
-197.7218548909988
 45
0.7106229113136566
 46
2.342978499712727
 79
     6
 49
0.0
 49
-1.9304
 49
0.0
 49
-2.159
 49
0.0
 49
-2.06375
 53
157.5
 43
1503.252324634867
 44
-197.7218548909988
 45
-1.243390803333151
 46
4.043725322321799
 79
     6
 49
0.0
 49
-1.0414
 49
0.0
 49
-1.7399
 49
0.0
 49
-0.6667500000000001
 53
197.5
 43
1504.761197368113
 44
-198.1261561213536
 45
-3.818339940238459
 46
1.030560518737139
 79
     6
 49
0.0
 49
-0.6349999999999999
 49
0.0
 49
-2.285999999999999
 49
0.0
 49
-2.984499999999999
 53
207.5
 43
1504.761197368113
 44
-198.1261561213536
 45
-3.399202713509347
 46
2.064780713410188
 79
     6
 49
0.0
 49
-0.3175
 49
0.0
 49
-1.498599999999999
 49
0.0
 49
-1.7145
 47
0.1913470343855104
 98
        1
 10
3310.650227158882
 20
915.5198587215236
  0
LINE
  5
881
330
1F
100
AcDbEntity
  8
0.13
100
AcDbLine
 10
1247.194460436663
 20
319.0418313620104
 30
0.0
 11
1350.026941862103
 21
291.4879510083755
 31
0.0
  0
LINE
  5
882
330
1F
100
AcDbEntity
  8
0.13
100
AcDbLine
 10
1496.334666447364
 20
254.0966136217666
 30
0.0
 11
1350.23065973832
 21
292.2098561557908
 31
0.0
  0
HATCH
  5
883
330
1F
100
AcDbEntity
  8
light grey
100
AcDbHatch
 10
0.0
 20
0.0
 30
0.0
210
0.0
220
0.0
230
1.0
  2
SOLID
 70
     1
 71
     0
 91
        1
 92
        1
 93
        4
 72
     1
 10
1247.194460436663
 20
321.6787517567904
 11
1247.194460436663
 21
320.1285542552136
 72
     1
 10
1247.194460436663
 20
320.1285542552136
 11
1349.513940851426
 21
293.4371084773492
 72
     1
 10
1349.513940851426
 20
293.4371084773492
 11
1349.902177932396
 21
294.8860289889172
 72
     1
 10
1349.902177932396
 20
294.8860289889172
 11
1247.194460436663
 21
321.6787517567904
 97
        0
 75
     0
 76
     1
 98
        1
 10
3307.968704162348
 20
915.5198587215236
  0
LINE
  5
884
330
1F
100
AcDbEntity
  8
0.13
100
AcDbLine
 10
1349.513940851425
 20
293.4371084773496
 30
0.0
 11
1349.902177932396
 21
294.8860289889172
 31
0.0
  0
LINE
  5
885
330
1F
100
AcDbEntity
  8
0.13
100
AcDbLine
 10
1349.902177932396
 20
294.8860289889172
 30
0.0
 11
1247.194460436663
 21
321.6787517567904
 31
0.0
  0
HATCH
  5
886
330
1F
100
AcDbEntity
  8
0.05
100
AcDbHatch
 10
0.0
 20
0.0
 30
0.0
210
0.0
220
0.0
230
1.0
  2
AR-SAND
 70
     0
 71
     0
 91
        1
 92
        1
 93
        4
 72
     1
 10
1247.194460436663
 20
321.6787517567904
 11
1247.194460436663
 21
320.1285542552136
 72
     1
 10
1247.194460436663
 20
320.1285542552136
 11
1349.513940851426
 21
293.4371084773492
 72
     1
 10
1349.513940851426
 20
293.4371084773492
 11
1349.902177932396
 21
294.8860289889172
 72
     1
 10
1349.902177932396
 20
294.8860289889172
 11
1247.194460436663
 21
321.6787517567904
 97
        0
 75
     0
 76
     1
 52
0.0
 41
0.05
 77
     0
 78
     4
 53
127.5
 43
1356.431599038928
 44
-158.3813600354157
 45
0.7106229113136566
 46
2.342978499712727
 79
     6
 49
0.0
 49
-1.9304
 49
0.0
 49
-2.159
 49
0.0
 49
-2.06375
 53
157.5
 43
1356.431599038928
 44
-158.3813600354157
 45
-1.243390803333151
 46
4.043725322321799
 79
     6
 49
0.0
 49
-1.0414
 49
0.0
 49
-1.7399
 49
0.0
 49
-0.6667500000000001
 53
197.5
 43
1357.940471772174
 44
-158.7856612657705
 45
-3.818339940238459
 46
1.030560518737139
 79
     6
 49
0.0
 49
-0.6349999999999999
 49
0.0
 49
-2.285999999999999
 49
0.0
 49
-2.984499999999999
 53
207.5
 43
1357.940471772174
 44
-158.7856612657705
 45
-3.399202713509347
 46
2.064780713410188
 79
     6
 49
0.0
 49
-0.3175
 49
0.0
 49
-1.498599999999999
 49
0.0
 49
-1.7145
 98
        1
 10
3310.650227158882
 20
915.5198587215236
  0
LINE
  5
887
330
1F
100
AcDbEntity
  8
0.13
100
AcDbLine
 10
1349.513940851425
 20
293.4371084773496
 30
0.0
 11
1247.194460436663
 21
320.1285542552139
 31
0.0
  0
SPLINE
  5
888
102
{ACAD_REACTORS
330
93A
102
}
330
1F
100
AcDbEntity
  8
0.20
100
AcDbSpline
210
0.0
220
0.0
230
1.0
 70
     8
 71
     3
 72
    19
 73
    15
 74
    13
 42
0.0000000001
 43
0.0000000001
 44
0.0000000001
 40
0.0
 40
0.0
 40
0.0
 40
0.0
 40
13.43351532190369
 40
27.32263097635142
 40
43.75286645034508
 40
61.60380591167523
 40
79.24479973467666
 40
99.96167652209074
 40
140.3604677209808
 40
167.7844220065363
 40
206.7682864513109
 40
235.6413893971162
 40
253.9013417795157
 40
267.8424998525809
 40
267.8424998525809
 40
267.8424998525809
 40
267.8424998525809
 10
1501.687078085697
 20
213.8369526535182
 30
0.0
 10
1501.825842830949
 20
208.7158472598077
 30
0.0
 10
1502.10807855527
 20
198.2999531687646
 30
0.0
 10
1483.771678468796
 20
195.8602045829997
 30
0.0
 10
1470.133057019561
 20
205.5945108633472
 30
0.0
 10
1462.622399991155
 20
221.4267737800815
 30
0.0
 10
1450.690035623377
 20
236.3750509982678
 30
0.0
 10
1426.840146695848
 20
248.2574159165744
 30
0.0
 10
1396.363374957461
 20
254.2613863917343
 30
0.0
 10
1361.857307911788
 20
236.8135111724848
 30
0.0
 10
1353.369012084724
 20
203.6536022371182
 30
0.0
 10
1357.677554065788
 20
172.1606959401625
 30
0.0
 10
1336.40630503648
 20
159.9320339885124
 30
0.0
 10
1326.059109316993
 20
163.770112741293
 30
0.0
 10
1321.579391409817
 20
165.4317716664841
 30
0.0
 11
1501.687078085697
 21
213.8369526535182
 31
0.0
 11
1499.267157639465
 21
200.623197739122
 31
0.0
 11
1485.701665071814
 21
197.642435242774
 31
0.0
 11
1471.625798771571
 21
206.1172582868588
 31
0.0
 11
1461.984793447645
 21
221.1408083332397
 31
0.0
 11
1450.608405140467
 21
234.62348062576
 31
0.0
 11
1432.509786509001
 21
244.7046009731042
 31
0.0
 11
1392.406067910682
 21
249.5784172312691
 31
0.0
 11
1368.241853587939
 21
236.6106103688589
 31
0.0
 11
1355.584003768216
 21
199.7389339086014
 31
0.0
 11
1351.163402550872
 21
171.2062446102495
 31
0.0
 11
1335.181236353176
 21
162.3746974843643
 31
0.0
 11
1321.579391409817
 21
165.4317716664841
 31
0.0
  0
SPLINE
  5
90F
102
{ACAD_REACTORS
330
93A
102
}
330
1F
100
AcDbEntity
  8
0.20
100
AcDbSpline
210
0.0
220
0.0
230
1.0
 70
     8
 71
     3
 72
    19
 73
    15
 74
    13
 42
0.0000000001
 43
0.0000000001
 44
0.0000000001
 40
0.0
 40
0.0
 40
0.0
 40
0.0
 40
10.58299300670205
 40
23.16110234060138
 40
47.7824011861157
 40
69.66561659280248
 40
89.81124396901686
 40
104.7777318786292
 40
139.8291314852296
 40
175.3136222124063
 40
209.4284642097219
 40
231.6007756054492
 40
257.1789963853708
 40
274.1838153640906
 40
274.1838153640906
 40
274.1838153640906
 40
274.1838153640906
 10
1520.609405469879
 20
195.4603285500011
 30
0.0
 10
1517.026058146408
 20
195.4926866300396
 30
0.0
 10
1509.183827311682
 20
195.5635029674258
 30
0.0
 10
1494.890510566524
 20
187.744961129626
 30
0.0
 10
1472.306000423674
 20
191.8708379920706
 30
0.0
 10
1460.293475897435
 20
211.4795033814125
 30
0.0
 10
1450.316898058733
 20
227.9275844788424
 30
0.0
 10
1430.062530656866
 20
240.4582281237177
 30
0.0
 10
1401.870068600532
 20
248.6690346627796
 30
0.0
 10
1364.408685494463
 20
233.1690146111685
 30
0.0
 10
1359.805475059955
 20
200.0229626501475
 30
0.0
 10
1361.385031893018
 20
172.2504263977367
 30
0.0
 10
1340.275899598349
 20
155.140966016328
 30
0.0
 10
1326.308170834238
 20
159.8551743938535
 30
0.0
 10
1320.730393847818
 20
161.7377140279932
 30
0.0
 11
1520.609405469879
 21
195.4603285500011
 31
0.0
 11
1510.050186261552
 21
194.7513640301572
 31
0.0
 11
1498.139525261527
 21
190.7084703934163
 31
0.0
 11
1473.892792104418
 21
194.9868214832791
 31
0.0
 11
1460.039446616188
 21
211.9267133164397
 31
0.0
 11
1448.09690883045
 21
228.1508340512435
 31
0.0
 11
1435.676667968551
 21
236.501485360033
 31
0.0
 11
1401.521008474673
 21
244.3749559365847
 31
0.0
 11
1369.48704556346
 21
229.1114601911761
 31
0.0
 11
1360.642511172826
 21
196.1630663621181
 31
0.0
 11
1357.764543429222
 21
174.1783286039397
 31
0.0
 11
1337.449948588712
 21
158.6360438705962
 31
0.0
 11
1320.730393847818
 21
161.7377140279932
 31
0.0
  0
SPLINE
  5
910
102
{ACAD_REACTORS
330
93A
102
}
330
1F
100
AcDbEntity
  8
0.20
100
AcDbSpline
210
0.0
220
0.0
230
1.0
 70
     8
 71
     3
 72
     9
 73
     5
 74
     3
 42
0.0000000001
 43
0.0000000001
 44
0.0000000001
 40
0.0
 40
0.0
 40
0.0
 40
0.0
 40
8.083563421753257
 40
16.24406095980357
 40
16.24406095980357
 40
16.24406095980357
 40
16.24406095980357
 10
1501.687078085697
 20
213.8369526535182
 30
0.0
 10
1502.920385340936
 20
211.3580622315017
 30
0.0
 10
1505.39873767035
 20
206.3766889154281
 30
0.0
 10
1504.471091999342
 20
200.8890206550288
 30
0.0
 10
1504.005072434826
 20
198.1321913474166
 30
0.0
 11
1501.687078085697
 21
213.8369526535182
 31
0.0
 11
1504.543546889799
 21
206.2749037536034
 31
0.0
 11
1504.005072434826
 21
198.1321913474166
 31
0.0
  0
SPLINE
  5
911
102
{ACAD_REACTORS
330
93A
102
}
330
1F
100
AcDbEntity
  8
0.20
100
AcDbSpline
210
0.0
220
0.0
230
1.0
 70
     8
 71
     3
 72
     9
 73
     5
 74
     3
 42
0.0000000001
 43
0.0000000001
 44
0.0000000001
 40
0.0
 40
0.0
 40
0.0
 40
0.0
 40
7.752928642463489
 40
16.90468795489814
 40
16.90468795489814
 40
16.90468795489814
 40
16.90468795489814
 10
1520.609405469879
 20
195.4603285500011
 30
0.0
 10
1518.138636197333
 20
196.2675386293489
 30
0.0
 10
1512.751306391125
 20
198.0276005536499
 30
0.0
 10
1507.076996524748
 20
198.0954561102206
 30
0.0
 10
1504.005072434826
 20
198.1321913474166
 30
0.0
 11
1520.609405469879
 21
195.4603285500011
 31
0.0
 11
1513.136734907557
 21
197.5260238813919
 31
0.0
 11
1504.005072434826
 21
198.1321913474166
 31
0.0
  0
LINE
  5
919
102
{ACAD_REACTORS
330
93A
102
}
330
1F
100
AcDbEntity
  8
0.20
100
AcDbLine
 10
1310.973112925909
 20
167.7557315513791
 30
0.0
 11
1325.580930836086
 21
170.5063347273134
 31
0.0
  0
LINE
  5
91A
102
{ACAD_REACTORS
330
93A
102
}
330
1F
100
AcDbEntity
  8
0.20
100
AcDbLine
 10
1310.973112925909
 20
167.7557315513791
 30
0.0
 11
1320.128248660103
 21
154.7464478202416
 31
0.0
  0
LINE
  5
91B
102
{ACAD_REACTORS
330
93A
102
}
330
1F
100
AcDbEntity
  8
0.20
100
AcDbLine
 10
1320.128248660103
 20
154.7464478202416
 30
0.0
 11
1320.730393847818
 21
161.7377140279932
 31
0.0
  0
LINE
  5
91C
102
{ACAD_REACTORS
330
93A
102
}
330
1F
100
AcDbEntity
  8
0.20
100
AcDbLine
 10
1321.579391409817
 20
165.4317716664841
 30
0.0
 11
1325.580930836086
 21
170.5063347273134
 31
0.0
  0
LINE
  5
91D
330
1F
100
AcDbEntity
  8
0.20
100
AcDbLine
 10
1379.827072065461
 20
237.8744033181478
 30
0.0
 11
1379.82707206546
 21
107.5425297790549
 31
0.0
  0
HATCH
  5
93A
102
{ACAD_XDICTIONARY
360
B56
102
}
330
1F
100
AcDbEntity
  8
0.20
 62
     5
100
AcDbHatch
 10
0.0
 20
0.0
 30
0.0
210
0.0
220
0.0
230
1.0
  2
SOLID
 70
     1
 71
     1
 91
        1
 92
        5
 93
       10
 72
     4
 94
        3
 73
     0
 74
     0
 95
       12
 96
        8
 40
161.6846524183474
 40
161.6846524183474
 40
161.6846524183474
 40
161.6846524183474
 40
178.6894713970672
 40
204.2676921769888
 40
226.4400035727161
 40
260.5548455700317
 40
274.1838153640906
 40
274.1838153640906
 40
274.1838153640906
 40
274.1838153640906
 10
1320.730393847818
 20
161.7377140279932
 10
1326.308170834238
 20
159.8551743938535
 10
1340.275899598349
 20
155.140966016328
 10
1361.385031893018
 20
172.2504263977367
 10
1359.805475059955
 20
200.0229626501475
 10
1363.312425718631
 20
225.275244815181
 10
1375.788299383595
 20
235.5410839131934
 10
1379.827072065461
 20
237.8744033181478
 72
     4
 94
        3
 73
     0
 74
     0
 95
       15
 96
       11
 40
0.0
 40
0.0
 40
0.0
 40
0.0
 40
21.85552093311776
 40
56.90692053971819
 40
71.87340844933055
 40
92.01903582554493
 40
113.9022512322317
 40
138.523550077746
 40
151.1016594116453
 40
161.6846524183474
 40
161.6846524183474
 40
161.6846524183474
 40
161.6846524183474
 10
1379.827072065461
 20
237.8744033181478
 10
1386.303679045036
 20
241.6161322873366
 10
1406.363911013806
 20
247.3602425963509
 10
1430.062530656866
 20
240.4582281237177
 10
1450.316898058733
 20
227.9275844788424
 10
1460.293475897435
 20
211.4795033814125
 10
1472.306000423674
 20
191.8708379920706
 10
1494.890510566524
 20
187.744961129626
 10
1509.183827311682
 20
195.5635029674258
 10
1517.026058146408
 20
195.4926866300396
 10
1520.609405469879
 20
195.4603285500011
 72
     4
 94
        3
 73
     0
 74
     0
 95
        9
 96
        5
 40
0.0
 40
0.0
 40
0.0
 40
0.0
 40
7.752928642463489
 40
16.90468795489814
 40
16.90468795489814
 40
16.90468795489814
 40
16.90468795489814
 10
1520.609405469879
 20
195.4603285500011
 10
1518.138636197333
 20
196.2675386293489
 10
1512.751306391125
 20
198.0276005536499
 10
1507.076996524748
 20
198.0954561102206
 10
1504.005072434826
 20
198.1321913474166
 72
     4
 94
        3
 73
     0
 74
     0
 95
        9
 96
        5
 40
0.0
 40
0.0
 40
0.0
 40
0.0
 40
8.160497538050318
 40
16.24406095980357
 40
16.24406095980357
 40
16.24406095980357
 40
16.24406095980357
 10
1504.005072434826
 20
198.1321913474166
 10
1504.471091999342
 20
200.8890206550288
 10
1505.39873767035
 20
206.3766889154281
 10
1502.920385340936
 20
211.3580622315017
 10
1501.687078085697
 20
213.8369526535182
 72
     4
 94
        3
 73
     0
 74
     0
 95
       15
 96
       11
 40
0.0
 40
0.0
 40
0.0
 40
0.0
 40
13.43351532190369
 40
27.32263097635142
 40
43.75286645034508
 40
61.60380591167523
 40
79.24479973467666
 40
99.96167652209074
 40
140.3604677209808
 40
153.4276098796751
 40
153.4276098796751
 40
153.4276098796751
 40
153.4276098796751
 10
1501.687078085697
 20
213.8369526535182
 10
1501.825842830949
 20
208.7158472598077
 10
1502.10807855527
 20
198.2999531687646
 10
1483.771678468796
 20
195.8602045829997
 10
1470.133057019561
 20
205.5945108633472
 10
1462.622399991155
 20
221.4267737800815
 10
1450.690035623377
 20
236.3750509982678
 10
1426.840146695848
 20
248.2574159165744
 10
1401.3052221763
 20
253.2878349588806
 10
1383.792633986629
 20
247.1699959536993
 10
1379.827072065461
 20
245.1438649236433
 72
     4
 94
        3
 73
     0
 74
     0
 95
       12
 96
        8
 40
153.4276098796751
 40
153.4276098796751
 40
153.4276098796751
 40
153.4276098796751
 40
167.7844220065363
 40
206.7682864513109
 40
235.6413893971162
 40
253.9013417795157
 40
267.8424998525809
 40
267.8424998525809
 40
267.8424998525809
 40
267.8424998525809
 10
1379.827072065461
 20
245.1438649236433
 10
1375.470126469536
 20
242.9177635933259
 10
1360.693194820666
 20
232.2658510910614
 10
1353.369012084724
 20
203.6536022371182
 10
1357.677554065788
 20
172.1606959401625
 10
1336.40630503648
 20
159.9320339885124
 10
1326.059109316993
 20
163.770112741293
 10
1321.579391409817
 20
165.4317716664841
 72
     1
 10
1321.579391409817
 20
165.431771666484
 11
1325.580930836086
 21
170.5063347273134
 72
     1
 10
1325.580930836086
 20
170.5063347273134
 11
1310.973112925909
 21
167.7557315513791
 72
     1
 10
1310.973112925909
 20
167.7557315513791
 11
1320.128248660104
 21
154.7464478202414
 72
     1
 10
1320.128248660104
 20
154.7464478202414
 11
1320.730393847818
 21
161.7377140279932
 97
        8
330
90F
330
911
330
910
330
888
330
91C
330
919
330
91A
330
91B
 75
     0
 76
     1
 47
0.3674870716201825
 98
        1
 10
1367.79631953396
 20
231.0073166617924
  0
MTEXT
  5
986
330
1F
100
AcDbEntity
  8
0.20
100
AcDbMText
 10
246.7584177207357
 20
291.8337698475777
 30
0.0
 40
4.0
 41
61.14285714285714
 71
     3
 72
     5
  1
Underlay
 73
     1
 44
1.0
1001
ACAD
1000
MTEXTBEGIN
1070
    73
1070
     1
1070
    44
1040
1.0
1070
    74
1070
     0
1000
MTEXTEND
  0
LEADER
  5
987
330
1F
100
AcDbEntity
  8
dim
100
AcDbLeader
  3
ISO-25
 76
     3
 10
275.4065872865362
 20
313.9555476450059
 30
0.0
 10
266.5469525646422
 20
289.400135402708
 30
0.0
 10
249.3613112519829
 20
289.400135402708
 30
0.0
211
-1.0
221
0.0
231
0.0
1001
ACAD
1000
DSTYLE
1002
{
1070
    41
1040
5.0
1002
}
  0
VIEWPORT
  5
746
102
{ACAD_XDICTIONARY
360
B4E
102
}
330
745
100
AcDbEntity
 67
     1
  8
0
100
AcDbViewport
 10
68.65319032440715
 20
29.49093552709837
 30
0.0
 40
89.98943432438927
 41
50.78880548891588
 68
     1
 69
     1
 12
68.65319032440715
 22
29.49093552709837
 13
0.0
 23
0.0
 14
10.0
 24
10.0
 15
10.0
 25
10.0
 16
0.0
 26
0.0
 36
1.0
 17
0.0
 27
0.0
 37
0.0
 42
50.0
 43
0.0
 44
0.0
 45
50.78880548891588
 50
0.0
 51
0.0
 72
  1000
 90
    32800
  1

281
     0
 71
     1
 74
     0
110
0.0
120
0.0
130
0.0
111
1.0
121
0.0
131
0.0
112
0.0
122
1.0
132
0.0
 79
     0
146
0.0
  0
LINE
  5
747
330
745
100
AcDbEntity
 67
     1
  8
0.20
100
AcDbLine
 10
11.19334780920769
 20
15.05673807446641
 30
0.0
 11
11.19334780920769
 21
283.7174016427523
 31
0.0
  0
LINE
  5
748
330
745
100
AcDbEntity
 67
     1
  8
0.20
100
AcDbLine
 10
192.816671700947
 20
283.7174016427523
 30
0.0
 11
192.816671700947
 21
15.05673807446641
 31
0.0
  0
LINE
  5
749
330
745
100
AcDbEntity
 67
     1
  8
0.20
100
AcDbLine
 10
11.19334780920769
 20
283.7174016427523
 30
0.0
 11
192.816671700947
 21
283.7174016427523
 31
0.0
  0
LINE
  5
74B
330
745
100
AcDbEntity
 67
     1
  8
0.20
100
AcDbLine
 10
192.816671700947
 20
55.05673807446641
 30
0.0
 11
11.19334780920769
 21
55.05673807446641
 31
0.0
  0
MTEXT
  5
74D
102
{ACAD_XDICTIONARY
360
74E
102
}
330
745
100
AcDbEntity
 67
     1
  8
0.20
100
AcDbMText
 10
13.61553426979049
 20
50.92743318699059
 30
0.0
 40
1.5
 41
0.0
 71
     1
 72
     5
  1
2.30 - Eaves & Fascia Junction Detail.dwg
 73
     1
 44
1.0
1001
ACAD
1000
MTEXTBEGIN
1070
    73
1070
     1
1070
    44
1040
1.0
1070
    74
1070
     0
1000
MTEXTEND
  0
MTEXT
  5
74F
330
745
100
AcDbEntity
 67
     1
  8
0.20
100
AcDbMText
 10
12.41831876334663
 20
54.01967089237054
 30
0.0
 40
1.5
 41
15.8
 71
     1
 72
     5
  1
File Name:
 73
     1
 44
1.0
1001
ACAD
1000
MTEXTBEGIN
1070
    73
1070
     1
1070
    44
1040
1.0
1070
    74
1070
     0
1000
MTEXTEND
  0
LINE
  5
750
330
745
100
AcDbEntity
 67
     1
  8
0.20
100
AcDbLine
 10
91.19334780920766
 20
47.05673807446642
 30
0.0
 11
91.1933478092077
 21
55.0567380744664
 31
0.0
  0
MTEXT
  5
751
330
745
100
AcDbEntity
 67
     1
  8
0.20
100
AcDbMText
 10
92.34132571795271
 20
54.01967089237054
 30
0.0
 40
1.5
 41
15.8
 71
     1
 72
     5
  1
Scale:
 73
     1
 44
1.0
1001
ACAD
1000
MTEXTBEGIN
1070
    73
1070
     1
1070
    44
1040
1.0
1070
    74
1070
     0
1000
MTEXTEND
  0
MTEXT
  5
752
102
{ACAD_XDICTIONARY
360
753
102
}
330
745
100
AcDbEntity
 67
     1
  8
0.20
100
AcDbMText
 10
94.03446504003728
 20
50.92743318699059
 30
0.0
 40
1.5
 41
0.0
 71
     1
 72
     5
  1
1:2 @ A4
 73
     1
 44
1.0
1001
ACAD
1000
MTEXTBEGIN
1070
    73
1070
     1
1070
    44
1040
1.0
1070
    74
1070
     0
1000
MTEXTEND
  0
LINE
  5
754
330
745
100
AcDbEntity
 67
     1
  8
0.20
100
AcDbLine
 10
152.8166717009471
 20
55.05673807446641
 30
0.0
 11
152.8166717009471
 21
37.05673807446642
 31
0.0
  0
LINE
  5
755
330
745
100
AcDbEntity
 67
     1
  8
0.20
100
AcDbLine
 10
192.816671700947
 20
47.05673807446641
 30
0.0
 11
11.19334780920769
 21
47.05673807446642
 31
0.0
  0
LINE
  5
757
330
745
100
AcDbEntity
 67
     1
  8
0.20
100
AcDbLine
 10
111.1933478092076
 20
47.05673807446635
 30
0.0
 11
111.1933478092077
 21
55.05673807446633
 31
0.0
  0
MTEXT
  5
758
330
745
100
AcDbEntity
 67
     1
  8
0.20
100
AcDbMText
 10
112.3176621052764
 20
54.01967089237054
 30
0.0
 40
1.5
 41
15.8
 71
     1
 72
     5
  1
Drawn By:
 73
     1
 44
1.0
1001
ACAD
1000
MTEXTBEGIN
1070
    73
1070
     1
1070
    44
1040
1.0
1070
    74
1070
     0
1000
MTEXTEND
  0
MTEXT
  5
759
330
745
100
AcDbEntity
 67
     1
  8
0.20
100
AcDbMText
 10
12.41831876334663
 20
45.89498186346634
 30
0.0
 40
1.5
 41
15.8
 71
     1
 72
     5
  1
Drawing Name:
 73
     1
 44
1.0
1001
ACAD
1000
MTEXTBEGIN
1070
    73
1070
     1
1070
    44
1040
1.0
1070
    74
1070
     0
1000
MTEXTEND
  0
MTEXT
  5
75A
102
{ACAD_XDICTIONARY
360
75B
102
}
330
745
100
AcDbEntity
 67
     1
  8
0.20
100
AcDbMText
 10
13.61553426979049
 20
42.19885136107695
 30
0.0
 40
2.5
 41
0.0
 71
     1
 72
     5
  1
Eaves / Fascai Junction Detail
 73
     1
 44
1.0
1001
ACAD
1000
MTEXTBEGIN
1070
    73
1070
     1
1070
    44
1040
1.0
1070
    74
1070
     0
1000
MTEXTEND
  0
MTEXT
  5
75C
330
745
100
AcDbEntity
 67
     1
  8
0.20
100
AcDbMText
 10
153.8975036428428
 20
54.0116458670201
 30
0.0
 40
1.5
 41
15.8
 71
     1
 72
     5
  1
Date:
 73
     1
 44
1.0
1001
ACAD
1000
MTEXTBEGIN
1070
    73
1070
     1
1070
    44
1040
1.0
1070
    74
1070
     0
1000
MTEXTEND
  0
MTEXT
  5
762
330
745
100
AcDbEntity
 67
     1
  8
0.20
100
AcDbMText
 10
153.8975036428428
 20
46.33646641462212
 30
0.0
 40
1.5
 41
15.8
 71
     1
 72
     5
  1
Sheet:
 73
     1
 44
1.0
1001
ACAD
1000
MTEXTBEGIN
1070
    73
1070
     1
1070
    44
1040
1.0
1070
    74
1070
     0
1000
MTEXTEND
  0
MTEXT
  5
763
102
{ACAD_XDICTIONARY
360
764
102
}
330
745
100
AcDbEntity
 67
     1
  8
0.20
100
AcDbMText
 10
114.3230847577793
 20
50.92743318699059
 30
0.0
 40
1.5
 41
0.0
 71
     1
 72
     5
  1
I.M
 73
     1
 44
1.0
1001
ACAD
1000
MTEXTBEGIN
1070
    73
1070
     1
1070
    44
1040
1.0
1070
    74
1070
     0
1000
MTEXTEND
  0
MTEXT
  5
765
102
{ACAD_XDICTIONARY
360
766
102
}
330
745
100
AcDbEntity
 67
     1
  8
0.20
100
AcDbMText
 10
155.7824372776945
 20
50.92743318699059
 30
0.0
 40
1.5
 41
0.0
 71
     1
 72
     5
  1
28th January 2013
 73
     1
 44
1.0
1001
ACAD
1000
MTEXTBEGIN
1070
    73
1070
     1
1070
    44
1040
1.0
1070
    74
1070
     0
1000
MTEXTEND
  0
MTEXT
  5
767
102
{ACAD_XDICTIONARY
360
768
102
}
330
745
100
AcDbEntity
 67
     1
  8
0.20
100
AcDbMText
 10
155.5509960702629
 20
42.19885136107695
 30
0.0
 40
2.5
 41
0.0
 71
     1
 72
     5
  1
09
 73
     1
 44
1.0
1001
ACAD
1000
MTEXTBEGIN
1070
    73
1070
     1
1070
    44
1040
1.0
1070
    74
1070
     0
1000
MTEXTEND
  0
VIEWPORT
  5
769
102
{ACAD_XDICTIONARY
360
B50
102
}
330
745
100
AcDbEntity
 67
     1
  8
Defpoints
100
AcDbViewport
 10
102.0050097550773
 20
177.1415824508152
 30
0.0
 40
181.6233238917393
 41
213.1516383838743
 68
    -1
 69
     2
 12
385.3631698967715
 22
177.1928251374108
 13
0.0
 23
0.0
 14
10.0
 24
10.0
 15
10.0
 25
10.0
 16
0.0
 26
0.0
 36
1.0
 17
0.0
 27
0.0
 37
0.0
 42
50.0
 43
0.0
 44
0.0
 45
426.3032784990194
 50
0.0
 51
0.0
 72
  1000
 90
    49248
  1

281
     0
 71
     1
 74
     0
110
0.0
120
0.0
130
0.0
111
1.0
121
0.0
131
0.0
112
0.0
122
1.0
132
0.0
 79
     0
146
0.0
  0
OLE2FRAME
  5
76C
330
745
100
AcDbEntity
 67
     1
  8
0.20
100
AcDbOle2Frame
 70
     2
  1
OLE
1001
ACAD
1000
OLEBEGIN
1070
    70
1070
     1
1070
    71
1070
     1
1070
    40
1040
0.0
1070
    41
1040
0.1619238588059488
1070
    42
1040
0.1617867940552742
1070
    72
1070
     0
1070
     3
1000

1070
    90
1071
        0
1070
    43
1040
0.0
1070
     4
1000

1070
    91
1071
        0
1070
    44
1040
0.0
1000
OLEEND
  0
VIEWPORT
  5
8EB
102
{ACAD_XDICTIONARY
360
B54
102
}
330
745
100
AcDbEntity
 67
     1
  8
0.20
100
AcDbViewport
 10
48.33641336594758
 20
81.75760512421197
 30
0.0
 40
66.74876404253723
 41
49.61843393525987
 68
    -1
 69
     3
 12
1430.036379487169
 22
196.287737407069
 13
0.0
 23
0.0
 14
10.0
 24
10.0
 15
10.0
 25
10.0
 16
0.0
 26
0.0
 36
1.0
 17
0.0
 27
0.0
 37
0.0
 42
50.0
 43
0.0
 44
0.0
 45
248.0921716155632
 50
0.0
 51
0.0
 72
  1000
 90
    32864
  1

281
     0
 71
     1
 74
     0
110
0.0
120
0.0
130
0.0
111
1.0
121
0.0
131
0.0
112
0.0
122
1.0
132
0.0
 79
     0
146
0.0
  0
MTEXT
  5
909
330
745
100
AcDbEntity
 67
     1
  8
0.20
100
AcDbMText
 10
30.06656907032811
 20
110.4057900127618
 30
0.0
 40
2.0
 41
37.85714285714286
 71
     1
 72
     5
  1
AIR-FLOW DIAGRAM @ 1:5
 73
     1
 44
1.0
1001
ACAD
1000
MTEXTBEGIN
1070
    73
1070
     1
1070
    44
1040
1.0
1070
    74
1070
     0
1000
MTEXTEND
  0
MTEXT
  5
94E
330
745
100
AcDbEntity
 67
     1
  8
0.20
100
AcDbMText
 10
61.51432978058642
 20
88.52266498177618
 30
0.0
 40
2.0
 41
16.41904761904762
 71
     1
 72
     5
  1
EXTERIOR
 73
     1
 44
1.0
1001
ACAD
1000
MTEXTBEGIN
1070
    73
1070
     1
1070
    44
1040
1.0
1070
    74
1070
     0
1000
MTEXTEND
  0
MTEXT
  5
956
330
745
100
AcDbEntity
 67
     1
  8
0.20
100
AcDbMText
 10
19.76719386928948
 20
68.8006980052852
 30
0.0
 40
2.0
 41
16.41904761904762
 71
     2
 72
     5
  1
ROOF\PSPACE
 73
     1
 44
1.0
1001
ACAD
1000
MTEXTBEGIN
1070
    73
1070
     1
1070
    44
1040
1.0
1070
    74
1070
     0
1000
MTEXTEND
  0
LINE
  5
A1E
330
745
100
AcDbEntity
 67
     1
  8
0.20
100
AcDbLine
 10
192.8166711579789
 20
37.05673776334795
 30
0.0
 11
11.19334726623958
 21
37.05673776334795
 31
0.0
  0
LINE
  5
A1F
330
745
100
AcDbEntity
 67
     1
  8
0.05
 62
     7
100
AcDbLine
 10
101.1893796353613
 20
21.16102421076737
 30
0.0
 11
101.1893796353613
 21
15.05673776334794
 31
0.0
  0
MTEXT
  5
A21
102
{ACAD_XDICTIONARY
360
A22
102
}
330
745
100
AcDbEntity
 67
     1
  8
0.20
100
AcDbMText
 10
103.9974597845453
 20
35.89867321459025
 30
0.0
 40
1.363599999999999
 41
0.0
 71
     1
 72
     5
  3
*  All constructions are to comply with New Zealand Building Standards and \P   Territorial Authority Regulations.\P*  The contractor shall verify all dimensions and levels on site before commencing work.\P*  These drawings are not to be used for con
  3
struction without Territorial Authority Consent.\P*  Do not attempt to reproduce these drawings in any unlawful manner without the consent of \P    Asphalt Shingle Roofing NZ.\P*  These drawings may be utilised in order to create working drawings for
  1
 submition to a Territorial \P    Authority or certifier for consent purposes.
 73
     1
 44
1.0
1001
ACAD
1000
MTEXTBEGIN
1070
    73
1070
     1
1070
    44
1040
1.0
1070
    74
1070
     0
1000
MTEXTEND
  0
IMAGE
  5
A23
330
745
100
AcDbEntity
 67
     1
  8
0.05
 62
     7
 92
      140
310
8C00000001000000840000000600000005000000428AB269FE6226402C1CF7E1382935400000000000000000428AB269FE6226408C03DB2E438742400000000000000000F019C3CB1E4C59408C03DB2E438742400000000000000000F019C3CB1E4C59402C1CF7E1382935400000000000000000428AB269FE6226402C1CF7
310
E1382935400000000000000000
100
AcDbRasterImage
 90
        0
 10
11.19334726623959
 20
21.16102421076737
 30
0.0
 11
0.1195166432524857
 21
0.0
 31
0.0
 12
0.0
 22
0.1195166432524857
 32
0.0
 13
753.0
 23
133.0
340
A1B
 70
     7
280
     0
281
    50
282
    50
283
     0
360
A24
 71
     1
 91
        2
 14
-0.5
 24
-0.5
 14
752.5
 24
132.5
  0
LINE
  5
A25
330
745
100
AcDbEntity
 67
     1
  8
0.20
100
AcDbLine
 10
192.8166711579789
 20
15.05673776334794
 30
0.0
 11
11.19334726623958
 21
15.05673776334794
 31
0.0
  0
LINE
  5
A26
330
745
100
AcDbEntity
 67
     1
  8
0.20
100
AcDbLine
 10
192.8166715178422
 20
37.0567378259002
 30
0.0
 11
11.19334762610288
 21
37.05673782590021
 31
0.0
  0
MTEXT
  5
ACB
330
745
100
AcDbEntity
 67
     1
  8
0.05
 62
     7
100
AcDbMText
 10
12.78713654661726
 20
19.90502742575825
 30
0.0
 40
1.363599999999999
 41
101.1024152163841
 71
     1
 72
     5
  1
{\C256;Ph: 09 636 7051 | Fax: 09 636 7053 | Free Ph: 0800 261 116 | e-mail:  info@asphaltshingle.co.nz\Pwww.asphaltshingle.co.nz   |  PO Box \fTimes New Roman|b1|i1|c0|p18;24 676\fTimes New Roman|b1|i1|c0|p18;, Royal Oak, Auckland, New Zealand}
  7
Compan
 73
     1
 44
1.0
1001
ACAD
1000
MTEXTBEGIN
1070
    73
1070
     1
1070
    44
1040
1.0
1070
    74
1070
     0
1000
MTEXTEND
  0
ENDSEC
  0
SECTION
  2
OBJECTS
  0
DICTIONARY
  5
C
330
0
100
AcDbDictionary
281
     1
  3
ACAD_COLOR
350
6B
  3
ACAD_FIELDLIST
350
14E
  3
ACAD_GROUP
350
D
  3
ACAD_IMAGE_DICT
350
76F
  3
ACAD_IMAGE_VARS
350
A1D
  3
ACAD_LAYOUT
350
1A
  3
ACAD_MATERIAL
350
6A
  3
ACAD_MLINESTYLE
350
17
  3
ACAD_PLOTSETTINGS
350
19
  3
ACAD_PLOTSTYLENAME
350
E
  3
ACAD_TABLESTYLE
350
7E
  3
ACDBHEADERROUNDTRIPXREC
350
B40
  3
AcDbVariableDictionary
350
5E
  3
DWGPROPS
350
B3F
  0
DICTIONARY
  5
10F
330
2
100
AcDbDictionary
280
     1
281
     1
  3
ACAD_LAYERFILTERS
360
28E
  3
ACAD_LAYERSTATES
360
132
  3
ACLYDICTIONARY
360
28D
  0
DICTIONARY
  5
307
330
1F
100
AcDbDictionary
280
     1
281
     1
  3
ACAD_SORTENTS
360
308
  0
DICTIONARY
  5
2F2
330
2B3
100
AcDbDictionary
280
     1
281
     1
  3
ACAD_SORTENTS
360
2F3
  0
DICTIONARY
  5
6E8
330
6E7
100
AcDbDictionary
280
     1
281
     1
  3
ACAD_SORTENTS
360
7D0
  0
DICTIONARY
  5
B49
330
2CA
100
AcDbDictionary
280
     1
281
     1
  3
ACAD_XREC_ROUNDTRIP
360
B4A
  0
DICTIONARY
  5
2DA
330
2D9
100
AcDbDictionary
280
     1
281
     1
  3
ACAD_DIMASSOC
360
2DB
  0
DICTIONARY
  5
B4B
330
2E6
100
AcDbDictionary
280
     1
281
     1
  3
ACAD_MTEXT_RT
360
B4C
  0
DICTIONARY
  5
2F0
330
2EF
100
AcDbDictionary
280
     1
281
     1
  3
ACAD_DIMASSOC
360
2F1
  0
DICTIONARY
  5
B45
330
247
100
AcDbDictionary
280
     1
281
     1
  3
ACAD_XREC_ROUNDTRIP
360
B46
  0
DICTIONARY
  5
257
330
256
100
AcDbDictionary
280
     1
281
     1
  3
ACAD_DIMASSOC
360
258
  0
DICTIONARY
  5
B47
330
263
100
AcDbDictionary
280
     1
281
     1
  3
ACAD_MTEXT_RT
360
B48
  0
DICTIONARY
  5
B52
330
840
100
AcDbDictionary
280
     1
281
     1
  3
ACAD_XREC_ROUNDTRIP
360
B53
  0
DICTIONARY
  5
B56
330
93A
100
AcDbDictionary
280
     1
281
     1
  3
ACAD_XREC_ROUNDTRIP
360
B57
  0
DICTIONARY
  5
B4E
330
746
100
AcDbDictionary
280
     1
281
     1
  3
ACAD_XREC_ROUNDTRIP
360
B4F
  0
DICTIONARY
  5
74E
330
74D
100
AcDbDictionary
280
     1
281
     1
  0
DICTIONARY
  5
753
330
752
100
AcDbDictionary
280
     1
281
     1
  0
DICTIONARY
  5
75B
330
75A
100
AcDbDictionary
280
     1
281
     1
  0
DICTIONARY
  5
764
330
763
100
AcDbDictionary
280
     1
281
     1
  0
DICTIONARY
  5
766
330
765
100
AcDbDictionary
280
     1
281
     1
  0
DICTIONARY
  5
768
330
767
100
AcDbDictionary
280
     1
281
     1
  0
DICTIONARY
  5
B50
330
769
100
AcDbDictionary
280
     1
281
     1
  3
ACAD_XREC_ROUNDTRIP
360
B51
  0
DICTIONARY
  5
B54
330
8EB
100
AcDbDictionary
280
     1
281
     1
  3
ACAD_XREC_ROUNDTRIP
360
B55
  0
DICTIONARY
  5
A22
330
A21
100
AcDbDictionary
280
     1
281
     1
  0
IMAGEDEF_REACTOR
  5
A24
330
A23
100
AcDbRasterImageDefReactor
 90
        2
330
A23
  0
DICTIONARY
  5
6B
102
{ACAD_REACTORS
330
C
102
}
330
C
100
AcDbDictionary
281
     1
  0
ACAD_PROXY_OBJECT
  5
14E
102
{ACAD_REACTORS
330
C
102
}
330
C
100
AcDbProxyObject
 90
      499
 91
      507
 95
  4980761
 70
     0
 93
        3
310
90
 94
        0
1001
ACAD
1000
AcRTDxfName
1000
FIELDLIST
1000
AcRTDxfName
1000
FIELDLIST
1000
AcRTDxfName
1000
FIELDLIST
1000
AcRTDxfName
1000
FIELDLIST
1000
AcRTDxfName
1000
FIELDLIST
1000
AcRTDxfName
1000
FIELDLIST
  0
DICTIONARY
  5
D
102
{ACAD_REACTORS
330
C
102
}
330
C
100
AcDbDictionary
281
     1
  0
DICTIONARY
  5
76F
102
{ACAD_REACTORS
330
C
102
}
330
C
100
AcDbDictionary
281
     1
  3
ASCL logo
350
770
  3
asphalt logo
350
A1B
  0
RASTERVARIABLES
  5
A1D
102
{ACAD_REACTORS
330
C
102
}
330
C
100
AcDbRasterVariables
 90
        0
 70
     1
 71
     1
 72
     1
  0
DICTIONARY
  5
1A
102
{ACAD_REACTORS
330
C
102
}
330
C
100
AcDbDictionary
281
     1
  3
ASCL A4
350
742
  3
Model
350
22
  0
DICTIONARY
  5
6A
102
{ACAD_REACTORS
330
C
102
}
330
C
100
AcDbDictionary
281
     1
  0
DICTIONARY
  5
17
102
{ACAD_REACTORS
330
C
102
}
330
C
100
AcDbDictionary
281
     1
  3
Standard
350
18
  0
DICTIONARY
  5
19
102
{ACAD_REACTORS
330
C
102
}
330
C
100
AcDbDictionary
281
     1
  0
ACDBDICTIONARYWDFLT
  5
E
102
{ACAD_REACTORS
330
C
102
}
330
C
100
AcDbDictionary
281
     1
  3
Normal
350
F
100
AcDbDictionaryWithDefault
340
F
  0
DICTIONARY
  5
7E
102
{ACAD_REACTORS
330
C
102
}
330
C
100
AcDbDictionary
281
     1
  3
Standard
350
7F
  0
DICTIONARY
  5
B40
102
{ACAD_REACTORS
330
C
102
}
330
C
100
AcDbDictionary
281
     1
  3
COLORDICT
350
B42
  3
MATERIALDICT
350
B41
  0
DICTIONARY
  5
5E
102
{ACAD_REACTORS
330
C
102
}
330
C
100
AcDbDictionary
281
     1
  3
CTABLESTYLE
350
84
  3
DIMASSOC
350
5F
  3
HIDETEXT
350
63
  3
PROJECTNAME
350
A9E
  0
XRECORD
  5
B3F
102
{ACAD_REACTORS
330
C
102
}
330
C
100
AcDbXrecord
280
     1
  1
DWGPROPS COOKIE
  2

  3

  4

  6

  7

  8
Autodesk
  9

300
=
301
=
302
=
303
=
304
=
305
=
306
=
307
=
308
=
309
=
 40
0.1245954398148148
 41
2454141.50183684
 42
2456348.408032766
  1

 90
        0
  0
DICTIONARY
  5
28E
102
{ACAD_REACTORS
330
10F
102
}
330
10F
100
AcDbDictionary
281
     1
  0
DICTIONARY
  5
132
102
{ACAD_REACTORS
330
10F
102
}
330
10F
100
AcDbDictionary
281
     1
  0
DICTIONARY
  5
28D
102
{ACAD_REACTORS
330
10F
102
}
330
10F
100
AcDbDictionary
281
     1
1001
ACAD
1000
<All
  0
SORTENTSTABLE
  5
308
102
{ACAD_REACTORS
330
307
102
}
330
307
100
AcDbSortentsTable
330
1F
331
23C
  5
244
331
24C
  5
25E
331
7F6
  5
7EE
331
91C
  5
930
331
87D
  5
87F
331
885
  5
887
331
836
  5
837
331
83E
  5
83F
331
254
  5
268
331
25C
  5
302
331
264
  5
30B
331
640
  5
78A
331
26C
  5
377
331
846
  5
848
331
84E
  5
864
331
866
  5
868
331
86E
  5
877
331
7EF
  5
7E7
331
302
  5
38A
331
30A
  5
4FA
331
23D
  5
245
331
245
  5
253
331
24D
  5
25F
331
876
  5
878
331
91D
  5
847
331
87E
  5
880
331
886
  5
888
331
837
  5
838
331
83F
  5
840
331
255
  5
269
331
25D
  5
303
331
265
  5
30C
331
847
  5
849
331
867
  5
869
331
303
  5
3B8
331
30B
  5
5B0
331
23E
  5
246
331
787
  5
7E1
331
343
  5
60D
331
246
  5
256
331
7F0
  5
7E8
331
24E
  5
260
331
877
  5
879
331
87F
  5
881
331
887
  5
911
331
838
  5
839
331
256
  5
26B
331
38B
  5
695
331
25E
  5
304
331
266
  5
30D
331
791
  5
683
331
840
  5
841
331
848
  5
84A
331
7E1
  5
232
331
90F
  5
91A
331
868
  5
86A
331
7E9
  5
7F6
331
304
  5
3F8
331
30C
  5
60C
331
23F
  5
250
331
788
  5
7E2
331
247
  5
259
331
24F
  5
263
331
878
  5
87A
331
880
  5
882
331
839
  5
83A
331
25F
  5
305
331
267
  5
343
331
888
  5
919
331
841
  5
842
331
849
  5
84E
331
910
  5
91B
331
869
  5
86B
331
305
  5
497
331
30D
  5
262
331
240
  5
251
331
248
  5
25B
331
789
  5
7E3
331
7F2
  5
7E9
331
879
  5
87B
331
881
  5
883
331
83A
  5
83B
331
250
  5
264
331
693
  5
791
331
260
  5
306
331
268
  5
35C
331
842
  5
843
331
84A
  5
852
331
7E3
  5
7EF
331
911
  5
91C
331
86A
  5
86C
331
7EB
  5
834
331
231
  5
240
331
241
  5
252
331
78A
  5
25C
331
919
  5
91D
331
7F3
  5
7EA
331
87A
  5
87C
331
882
  5
884
331
83B
  5
83C
331
251
  5
265
331
261
  5
309
331
269
  5
373
331
843
  5
844
331
7E4
  5
7F4
331
86B
  5
86D
331
7EC
  5
231
331
232
  5
241
331
91A
  5
91E
331
7F4
  5
7EB
331
93A
  5
234
331
87B
  5
87D
331
883
  5
885
331
834
  5
835
331
83C
  5
83D
331
252
  5
266
331
25A
  5
26C
331
695
  5
798
331
26A
  5
374
331
844
  5
845
331
864
  5
866
331
86C
  5
86E
331
7ED
  5
7E4
331
233
  5
242
331
23B
  5
243
331
497
  5
788
331
24B
  5
25D
331
91B
  5
92F
331
7F5
  5
7EC
331
87C
  5
87E
331
884
  5
886
331
835
  5
836
331
83D
  5
83E
331
253
  5
267
331
388
  5
693
331
3B8
  5
722
331
25B
  5
301
331
3F8
  5
787
331
263
  5
30A
331
26B
  5
375
331
845
  5
846
331
865
  5
867
331
86D
  5
876
331
7EE
  5
7E5
331
301
  5
389
  0
SORTENTSTABLE
  5
2F3
102
{ACAD_REACTORS
330
2F2
102
}
330
2F2
100
AcDbSortentsTable
330
2B3
  0
SORTENTSTABLE
  5
7D0
102
{ACAD_REACTORS
330
6E8
102
}
330
6E8
100
AcDbSortentsTable
330
6E7
331
6EB
  5
6ED
331
6F2
  5
6EB
331
6F0
  5
6F2
331
6EE
  5
6F0
331
6EC
  5
6EE
331
6F5
  5
6EC
331
6F1
  5
6F5
331
6EF
  5
6F1
331
6ED
  5
6EF
  0
XRECORD
  5
B4A
102
{ACAD_REACTORS
330
B49
102
}
330
B49
100
AcDbXrecord
280
     1
102
Gradient1
1004
7B0000000200000001000000000000000000000000000000000000000000000000000000000000000000F03F0200000000000000000000001800000001000000D6D6D6C2000000000000000000000000000000000000F03F1800000001000000D6D6D6C2000000000000000000000000070000004C494E45415200
  0
DIMASSOC
  5
2DB
102
{ACAD_REACTORS
330
2DA
102
}
330
2DA
100
AcDbDimAssoc
330
2D9
 90
        2
 70
     0
 71
     0
  1
AcDbOsnapPointRef
 72
     1
331
2D2
 73
     2
 91
        0
 40
0.9999999999999998
 10
0.0
 20
0.0
 30
2.000000000000000E+50
 75
     0
  0
XRECORD
  5
B4C
102
{ACAD_REACTORS
330
B4B
102
}
330
B4B
100
AcDbXrecord
280
     1
 40
3984246.0
  1
\pt88;All gutters/spoutings shall be installed by the main contractor as per manufacturer's specifications.\P\PAll carpentry works and materials shall be provided by the main contractor, as per NZBC standards.\P\PFor roofing underlay & plywood instal
  1
lations, refer to Installation Guide bulletin.
  0
DIMASSOC
  5
2F1
102
{ACAD_REACTORS
330
2F0
102
}
330
2F0
100
AcDbDimAssoc
330
2EF
 90
        1
 70
     0
 71
     0
  1
AcDbOsnapPointRef
 72
    13
331
2CD
 73
     2
 91
        1
 40
0.0
 10
0.0
 20
0.0
 30
2.000000000000000E+50
 75
     0
  0
XRECORD
  5
B46
102
{ACAD_REACTORS
330
B45
102
}
330
B45
100
AcDbXrecord
280
     1
102
Gradient1
1004
7B0000000200000001000000000000000000000000000000000000000000000000000000000000000000F03F0200000000000000000000001800000001000000D6D6D6C2000000000000000000000000000000000000F03F1800000001000000D6D6D6C2000000000000000000000000070000004C494E45415200
  0
DIMASSOC
  5
258
102
{ACAD_REACTORS
330
257
102
}
330
257
100
AcDbDimAssoc
330
256
 90
        2
 70
     0
 71
     0
  1
AcDbOsnapPointRef
 72
     1
331
24F
 73
     2
 91
        0
 40
0.9999999999999998
 10
0.0
 20
0.0
 30
2.000000000000000E+50
 75
     0
  0
XRECORD
  5
B48
102
{ACAD_REACTORS
330
B47
102
}
330
B47
100
AcDbXrecord
280
     1
 40
11712472.0
  1
\pt88;Plywood shall over-hang over the fascia by 50mm.\P\PRoofing Underlay MUST have 100mm of Peel & Stick Starter Course Exposure for water-tight adhesion of Asphalt Shingles directly onto P & S Starter Course.\P\PAll gutters/spoutings shall be inst
  1
alled by the main contractor as per manufacturer's specifications.\P\PAll carpentry works and materials shall be provided by the main contractor, as per NZBC standards.\P\PFor roofing underlay & plywood installations, refer to Installation Guide bull
  1
etin.
  0
XRECORD
  5
B53
102
{ACAD_REACTORS
330
B52
102
}
330
B52
100
AcDbXrecord
280
     1
102
Gradient1
1004
7B0000000200000001000000000000000000000000000000000000000000000000000000000000000000F03F0200000000000000000000001800000001000000D6D6D6C2000000000000000000000000000000000000F03F1800000001000000D6D6D6C2000000000000000000000000070000004C494E45415200
  0
XRECORD
  5
B57
102
{ACAD_REACTORS
330
B56
102
}
330
B56
100
AcDbXrecord
280
     1
102
Gradient1
1004
7D0000000200000001000000000000000000000000000000000000000000000000000000000000000000F03F0200000000000000000000001800000001000000FF0000C2000000000000000000000000000000000000F03F1800000001000000E2E4E2C20000000000000000000000000900000043594C494E44455200
  0
XRECORD
  5
B4F
102
{ACAD_REACTORS
330
B4E
102
}
330
B4E
100
AcDbXrecord
280
     1
102
SHADEPLOT
 70
     0
  0
XRECORD
  5
B51
102
{ACAD_REACTORS
330
B50
102
}
330
B50
100
AcDbXrecord
280
     1
102
SHADEPLOT
 70
     0
  0
XRECORD
  5
B55
102
{ACAD_REACTORS
330
B54
102
}
330
B54
100
AcDbXrecord
280
     1
102
SHADEPLOT
 70
     0
  0
IMAGEDEF
  5
770
102
{ACAD_REACTORS
330
76F
102
}
330
76F
100
AcDbRasterImageDef
 90
        0
  1
D:\eboss\03. eboss logos\ASCL logo.jpg
 10
360.0
 20
89.0
 11
0.1388888888888889
 21
0.1388888888888889
280
     1
281
     2
  0
IMAGEDEF
  5
A1B
102
{ACAD_REACTORS
330
76F
330
A24
102
}
330
76F
100
AcDbRasterImageDef
 90
        0
  1
C:\Ashalt Net3.5\Main2\App_Images\asphalt logo.jpg
 10
753.0
 20
133.0
 11
0.2645833333333333
 21
0.2645833333333333
280
     1
281
     5
  0
LAYOUT
  5
742
102
{ACAD_XDICTIONARY
360
743
102
}
102
{ACAD_REACTORS
330
1A
102
}
330
1A
100
AcDbPlotSettings
  1

  2
Adobe PDF.pc3
  4
A4
  6

 40
3.174999952316284
 41
3.174999952316284
 42
3.175003051757812
 43
3.17498779296875
 44
209.9733276367187
 45
297.0106506347656
 46
0.0
 47
0.0
 48
0.0
 49
0.0
140
0.0
141
0.0
142
1.0
143
1.0
 70
   688
 72
     1
 73
     0
 74
     5
  7
C:\Documents and Settings\Sae-woon Lim\Application Data\Autodesk\AutoCAD 2005\R16.1\enu\Plot Styles\Eboss.ctb
 75
    16
147
1.0
148
0.0
149
0.0
100
AcDbLayout
  1
ASCL A4
 70
     1
 71
     1
 10
-3.174999952316284
 20
-3.174999952316284
 11
206.7983276844024
 21
293.8356506824494
 12
0.0
 22
0.0
 32
0.0
 14
11.19334726623958
 24
15.05673776334794
 34
0.0
 15
192.9508975590694
 25
283.7174016427523
 35
0.0
146
0.0
 13
0.0
 23
0.0
 33
0.0
 16
1.0
 26
0.0
 36
0.0
 17
0.0
 27
1.0
 37
0.0
 76
     0
330
745
331
746
1001
ACAD_PSEXT
1000
Adobe PDF.pc3
1000
Adobe PDF Converter
1000
My Documents
1000

1070
     0
  0
LAYOUT
  5
22
102
{ACAD_XDICTIONARY
360
B43
102
}
102
{ACAD_REACTORS
330
1A
102
}
330
1A
100
AcDbPlotSettings
  1

  2
none_device
  4
ISO_A4_(210.00_x_297.00_MM)
  6

 40
7.5
 41
20.0
 42
7.5
 43
20.0
 44
210.0
 45
297.0
 46
11.54999923706054
 47
-13.65000009536743
 48
0.0
 49
0.0
140
0.0
141
0.0
142
1.0
143
8.704084754739808
 70
 11952
 72
     1
 73
     0
 74
     0
  7
C:\Documents and Settings\Sae-woon Lim\Application Data\Autodesk\AutoCAD 2005\R16.1\enu\Plot Styles\Eboss.ctb
 75
     0
147
0.1148885871608098
148
0.0
149
0.0
100
AcDbLayout
  1
Model
 70
     1
 71
     0
 10
0.0
 20
0.0
 11
12.0
 21
9.0
 12
0.0
 22
0.0
 32
0.0
 14
0.0
 24
0.0
 34
0.0
 15
0.0
 25
0.0
 35
0.0
146
0.0
 13
0.0
 23
0.0
 33
0.0
 16
1.0
 26
0.0
 36
0.0
 17
0.0
 27
1.0
 37
0.0
 76
     0
330
1F
1001
ACAD_PSEXT
1000
None
1000
None
1000
Not applicable
1000
The layout will not be plotted unless a new plotter configuration name is selected.
1070
     0
  0
MLINESTYLE
  5
18
102
{ACAD_REACTORS
330
17
102
}
330
17
100
AcDbMlineStyle
  2
STANDARD
 70
     0
  3

 62
   256
 51
90.0
 52
90.0
 71
     2
 49
0.5
 62
   256
  6
BYLAYER
 49
-0.5
 62
   256
  6
BYLAYER
  0
ACDBPLACEHOLDER
  5
F
102
{ACAD_REACTORS
330
E
102
}
330
E
  0
ACAD_PROXY_OBJECT
  5
7F
102
{ACAD_REACTORS
330
7E
102
}
330
7E
100
AcDbProxyObject
 90
      499
 91
      504
 95
  4980761
 70
     0
 93
     1841
310
4214DD185B99185C9928000000000000F83F0000000000003E0FC00000000000004901028000000C1008070000C3001FDFF8000000C1003FBFF000000182007F7FE00000030400FEFFC00000060801FDFF8000000C1003FBFF000000182000000000000000C2020B0000001820100E000186003FBFF000000182007F7FE000
310
00030400FEFFC00000060801FDFF8000000C1003FBFF000000182007F7FE0000003040000000000000012404160000003040201C00030C007F7FE00000030400FEFFC00000060801FDFF8000000C1003FBFF000000182007F7FE00000030400FEFFC000000608000
340
11
340
11
340
11
 94
        0
1001
ACAD
1000
AcRTDxfName
1000
TABLESTYLE
1000
AcRTDxfName
1000
TABLESTYLE
1000
AcRTDxfName
1000
TABLESTYLE
1000
AcRTDxfName
1000
TABLESTYLE
1000
AcRTDxfName
1000
TABLESTYLE
1000
AcRTDxfName
1000
TABLESTYLE
  0
XRECORD
  5
B42
102
{ACAD_REACTORS
330
B40
102
}
330
B40
100
AcDbXrecord
280
     1
340
6B
  0
XRECORD
  5
B41
102
{ACAD_REACTORS
330
B40
102
}
330
B40
100
AcDbXrecord
280
     1
340
6A
  0
DICTIONARYVAR
  5
84
102
{ACAD_REACTORS
330
5E
102
}
330
5E
100
DictionaryVariables
280
     0
  1
STANDARD
  0
DICTIONARYVAR
  5
5F
102
{ACAD_REACTORS
330
5E
102
}
330
5E
100
DictionaryVariables
280
     0
  1
2
  0
DICTIONARYVAR
  5
63
102
{ACAD_REACTORS
330
5E
102
}
330
5E
100
DictionaryVariables
280
     0
  1
1
  0
DICTIONARYVAR
  5
A9E
102
{ACAD_REACTORS
330
5E
102
}
330
5E
100
DictionaryVariables
280
     0
  1

  0
DICTIONARY
  5
743
330
742
100
AcDbDictionary
280
     1
281
     1
  3
ACAD_XREC_ROUNDTRIP
360
B4D
  3
ADSK_XREC_LAYOUTTHUMBNAIL
360
744
  0
DICTIONARY
  5
B43
330
22
100
AcDbDictionary
280
     1
281
     1
  3
ACAD_XREC_ROUNDTRIP
360
B44
  0
XRECORD
  5
B4D
102
{ACAD_REACTORS
330
743
102
}
330
743
100
AcDbXrecord
280
     1
102
SHADEPLOT
 70
     0
102
SHADEPLOTRESLEVEL
 70
     2
102
SHADEPLOTCUSTOMDPI
 70
   300
  0
XRECORD
  5
744
102
{ACAD_REACTORS
330
743
102
}
330
743
100
AcDbXrecord
280
     1
310
28000000630000008C0000000100080000000000B036000000000000000000000001000000000000FFFFFF0000000000FFFFFF000000000000000000000000000000000000000000000000000000000000000000330000006600000099000000CC000000FF00000000330000333300006633000099330000CC330000FF3300
310
0000660000336600006666000099660000CC660000FF66000000990000339900006699000099990000CC990000FF99000000CC000033CC000066CC000099CC0000CCCC0000FFCC000000FF000033FF000066FF000099FF0000CCFF0000FFFF000000003300330033006600330099003300CC003300FF003300003333003333
310
33006633330099333300CC333300FF33330000663300336633006666330099663300CC663300FF66330000993300339933006699330099993300CC993300FF99330000CC330033CC330066CC330099CC3300CCCC3300FFCC330000FF330033FF330066FF330099FF3300CCFF3300FFFF330000006600330066006600660099
310
006600CC006600FF00660000336600333366006633660099336600CC336600FF33660000666600336666006666660099666600CC666600FF66660000996600339966006699660099996600CC996600FF99660000CC660033CC660066CC660099CC6600CCCC6600FFCC660000FF660033FF660066FF660099FF6600CCFF6600
310
FFFF660000009900330099006600990099009900CC009900FF00990000339900333399006633990099339900CC339900FF33990000669900336699006666990099669900CC669900FF66990000999900339999006699990099999900CC999900FF99990000CC990033CC990066CC990099CC9900CCCC9900FFCC990000FF99
310
0033FF990066FF990099FF9900CCFF9900FFFF99000000CC003300CC006600CC009900CC00CC00CC00FF00CC000033CC003333CC006633CC009933CC00CC33CC00FF33CC000066CC003366CC006666CC009966CC00CC66CC00FF66CC000099CC003399CC006699CC009999CC00CC99CC00FF99CC0000CCCC0033CCCC0066CC
310
CC0099CCCC00CCCCCC00FFCCCC0000FFCC0033FFCC0066FFCC0099FFCC00CCFFCC00FFFFCC000000FF003300FF006600FF009900FF00CC00FF00FF00FF000033FF003333FF006633FF009933FF00CC33FF00FF33FF000066FF003366FF006666FF009966FF00CC66FF00FF66FF000099FF003399FF006699FF009999FF00CC
310
99FF00FF99FF0000CCFF0033CCFF0066CCFF0099CCFF00CCCCFF00FFCCFF0000FFFF0033FFFF0066FFFF0099FFFF00CCFFFF00FFFFFF00000000000D0D0D001A1A1A00282828003535350043434300505050005D5D5D006B6B6B00787878008686860093939300A1A1A100AEAEAE00BBBBBB00C9C9C900D6D6D600E4E4E400
310
F1F1F100FFFFFF0000000000000000000000000000000000000000000000000000000000000000000000000000000000E2E2E2E2E2E2E2E2E2E2E2E2E2E2E2E2E2E2E2E2E2E2E2E2E2E2E2E2E2E2E2E2E2E2E2E2E2E2E2E2E2E2E2E2E2E2E2E2E2E2E2E2E2E2E2E2E2E2E2E2E2E2E2E2E2E2E2E2E2E2E2E2E2E2E2E2E2E2E2
310
E2E2E2E2E2E2E2E2E2E2E2E2E2E2E2E2E2E2E2E200E2F5F5F5F5F5F5F5F5F5F5F5F5F5F5F5F5F5F5F5F5F5F5F5F5F5F5F5F5F5F5F5F5F5F5F5F5F5F5F5F5F5F5F5F5F5F5F5F5F5F5F5F5F5F5F5F5F5F5F5F5F5F5F5F5F5F5F5F5F5F5F5F5F5F5F5F5F5F5F5F5F5F5F5F5F5F5F5F5F5F5F5F5F5F5F5F5F5E200E2E2E2E2E2E2
310
E2E2E2F5F5F5F5F5F5F5F5F5E2E2E2E2E2E2E2E2E2E2E2E2E2E2E2F5F5F5F5F5F5F5F5F5E2E2E2E2E2E2E2E2E2E2E2E2E2E2E2F5F5F5F5F5F5F5F5F5E2E2E2E2E2E2E2E2E2E2E2E2E2E2E2F5F5F5F5F5F5F5F5F5E2E2E2E2E2E2E2E2E200E2E2F5F5F5F5F5F5F5F5F5F5F5F5F5F5F5F5F5F5F5F5F5F5F5F5F5F5F5F5F5F5F5
310
F5F5F5F5F5F5F5F5F5F5F5F5F5F5F5F5F5F5F5F5F5F5F5F5F5F5F5F5F5F5F5F5F5F5F5F5F5F5F5F5F5F5F5F5F5F5F5F5F5F5F5F5F5F5F5F5F5F5F5F5F5F5F5F5E2E200E2E2F5F5F5F5F5F5F5F5F5F5F5F5F5F5F5F5F5F5F5F5F5F5F5F5F5F5F5F5F5F5F5F5F5F5F5F5F5F5F5F5F5F5F5F5F5F5F5F5F5F5F5F5F5F5F5F5F5F5
310
F5F5F5F5F5F5F5F5F5F5F5F5F5F5F5F5F5F5F5F5F5F5F5F5F5F5F5F5F5F5F5F5F5F5F5F5F5E2E200E2E2F5F5F5F5F5F5F5F5F5F5F5F5F5F5F5F5F5F5F5F5F5F5F5F5F5F5F5F5F5F5F5F5F5F5F5F5F5F5F5F5F5F5F5F5F5F5F5F5F5F5F5F5F5F5F5F5F5F5F5F5F5F5F5F5F5F5F5F5F5F5F5F5F5F5F5F5F5F5F5F5F5F5F5F5F5
310
F5F5F5F5F5F5F5F5F5F5E2E200E2E2F5F5F5F5F5F5F5F5F5F5F5F5F5F5F5F5F5F5F5F5F5F5F5F5F5F5F5F5F5F5F5F5F5F5F5F5F5F5F5F5F5F5F5F5F5F5F5F5F5F5F5F5F5F5F5F5F5F5F5F5F5F5F5F5F5F5F5F5F5F5F5F5F5F5F5F5F5F5F5F5F5F5F5F5F5F5F5F5F5F5F5F5F5F5F5E2E200E2E2F5F5F5F5E2E2E2E2E2E2E2E2
310
E2E2E2E2E2E2E2E2E2E2E2E2E2E2E2E2E2E2E2E2E2E2E2E2E2E2E2E2E2E2E2E2E2E2E2E2E2E2E2E2E2E2E2E2E2E2E2E2E2E2E2E2E2E2E2E2E2E2E2E2E2E2E2E2E2E2E2E2E2E2E2E2E2E2E2E2E2E2E2F5F5F5F5E2E200E2E2F5F5F5F5E2E2E2E2E2E2E2E2E2E2E2E2E2E2E2E2E2E2E2E2E2E2E2E2E2E2E2E2E2E2E2E2E2E2E2
310
E2E2E2E2E2E2E2E2E2E2F5F5F5F5F5F5F5F5F5F5E2E2E2E2E2E2E2E2E2E2E2E2E2E2E2E2F5F5E2E2E2E2E2E2E2E2E2E2E2F5F5E2F5F5F5F5E2E200E2E2F5F5F5F5E2E2E2E2E2E2E2E2E2E2E2E2E2E2E2E2E2E2E2E2E2E2E2E2E2E2E2E2E2E2E2E2E2E2E2E2E2E2E2E2F5F5F5F5F5F5F5F5F5F5F5F5F5F5F5E2E2E2E2E2E2E2
310
E2E2E2E2E2E2E2E2E2F5F5E2E2E2E2E2E2E2E2E2E2E2F5F5E2F5F5F5F5E2E240E2E2F5F5F5F5E2E2E2E2E2E2E2E2E2E2E2E2E2E2E2E2E2E2E2E2E2E2E2E2E2E2E2F5F5F5F5F5F5F5F5F5F5F5F5F5F5F5F5F5F5F5F5F5F5F5F5F5F5F5F5E2E2E2E2E2E2E2E2F5F5E2E2E2E2E2E2E2F5E2E2E2E2E2E2E2E2E2E2F5F5F5E2F5F5
310
F5F5E2E200E2F5F5F5F5F5E2E2E2E2E2E2E2E2E2E2E2E2E2E2E2E2E2E2E2E2E2E2E2E2E2E2E2E2E2E2E2E2E2E2F5F5F5F5F5F5F5F5F5F5F5F5F5F5F5F5F5F5F5F5F5E2F5E2E2E2E2E2E2E2E2E2E2E2E2E2E2E2E2E2E2E2E2E2F5F5F5F5F5F5F5F5E2F5F5F5F5F5E200E2F5F5F5F5F5E2F5F5F5F5F5F5F5F5F5F5F5F5F5F5F5
310
F5F5F5F5F5F5F5F5F5F5F5F5F5F5F5F5F5F5F5F5F5F5F5F5F5F5F5F5F5F5F5F5F5F5F5F5F5F5F5E2F5E2E2E2E2E2E2E2E2E2E2E2E2E2E2E2E2E2E2E2E2E2F5F5F5F5F5F5F5F5E2F5F5F5F5F5E288E2F5F5F5F5F5E2E2E2E2E2E2E2E2E2E2E2E2E2E2E2E2E2E2E2E2E2E2E2E2E2E2E2E2E2E2E2E2E2E2E2E2E2E2E2E2E2E2E2
310
E2E2E2E2E2E2E2E2E2E2E2E2E2E2E2E2E2E2E2E2E2E2E2E2E2E2E2E2E2E2E2E2E2E2E2E2E2E2E2E2E2E2E2E2F5F5F5F5F5E27CE2F5F5F5F5F5E2F5F5F5F5F5F5F5F5F5F5F5F5F5F5E2E2E2E2E2E2E2E2E2E2E2E2E2E2E2E2E2E2E2E2E2E2E2F5F5F5F5F5F5F5F5F5F5F5F5F5F5F5F5F5F5F5F5F5F5F5F5F5F5F5F5F5E2E2E2
310
F5F5F5F5F5F5F5F5F5F5F5F5F5F5F5F5E2F5F5F5F5F5E200E2F5F5F5F5F5E2E2E2E2E2E2E2E2E2E2E2E2E2E2E2E2F5F5F5F5F5F5F5F5F5F5F5F5F5F5F5F5F5F5F5F5F5F5F5F5F5F5F5F5F5F5F5F5F5F5F5F5F5F5F5F5F5F5F5F5F5F5F5F5F5F5F5E2F5F5F5F5F5F5F5F5F5F5F5F5F5F5F5F5F5F5E2F5F5F5F5F5E240E2F5F5
310
F5F5F5E2E2000000000000000000000000E2E2E2E2E2E2E2E2F5F5F5F5F5F5F5F5F5F5F5F5F5F5F5F5F5F5F5F5F5F5F5F5F5F5F5F5F5F5F5F5F5F5F5F5F5F5F5F5F5F5F5F5F5E2E2E2F5F5F5F5F5F5F5F5F5F5F5F5F5F5F5F5E2F5F5F5F5F5E200E2F5F5F5F5F5E2E2000000000000000000000000E2E2E2E2E2E2E2E2E2E2
310
E2E2E2E2E2E2E2E2E2E2E2E2E2E2E2E2E2E2E2E2E2E2E2E2E2E2E2E2E2E2E2E2E2E2E2E2E2E2E2E2E2E2E2E2E2E2E2E2E2E2E2E2E2E2E2E2E2E2E2E2E2E2E2F5F5F5F5F5E200E2F5F5F5F5F5E2E2000000000000000000000000E2E2E2E2E2E2E2E2E2E2E2E2E2E2E2E2E2E2E2E2E2F5F5F5E2E2E2E2E2E2F5F5F5E2F5E2E2
310
E2E2E2E2F5F5F5F5F5F5F5F5F5F5F5F5E2E2E2E2E2E2E2E2E2E2F5F5F5F5F5F5F5F5F5E2F5F5F5F5F5E240E2F5F5F5F5F5E2E2E2E2E2E2E2E2E2E2E2E2E2E2E2E2F5F5F5F5F5F5F5F5F5F5F5F5F5F5F5F5F5F5F5F5F5F5E2F5F5F5F5F5F5F5F5E2F5F5F5F5F5F5F5F5F5F5F5F5F5F5F5F5F5F5F5E2F5F5F5F5F5F5F5F5F5F5
310
F5F5F5F5F5F5F5F5E2F5F5F5F5F5E200E2F5F5F5F5F5E2F5F5F5F5F5F5F5F5F5F5F5F5F5F5E2E2E2E2E2F5F5F5F5F5F5F5F5F5F5F5F5F5F5F5F5F5F5E2E2E2F5F5F5F5F5F5E2E2E2E2E2F5F5F5F5F5F5F5F5F5F5F5F5F5F5F5E2E2E2F5F5F5F5F5F5F5F5F5F5F5F5F5F5F5F5E2F5F5F5F5F5E200E2E2F5F5F5F5E2E2E2E2E2
310
E2E2E2E2E2E2E2E2E2E2E2E2E2E2E2E2E2E2E2E2E2E2E2E2E2E2E2E2E2E2E2E2E2E2E2E2E2E2E2E2E2E2E2E2E2E2E2E2E2E2E2E2E2E2E2E2E2E2E2E2E2E2E2E2E2E2E2E2E2E2E2E2E2E2E2E2E2E2E2E2E2E2F5F5F5F5E2E240E2E2F5F5F5F5E2F5E2E2E2E2E2E2E2E2E2E2E2E2E2E2E2E2E2E2E2E2E2E2E2E2E2E2E2E2E2E2
310
E2E2F5F5F5F5F5F5F5F5F5F5F5F5F5F5F5F5F5F5F5F5F5F5F5F5F5F5F5F5F5F5F5F5F5F5F5F5F5F5F5F5F5F5F5F5F5F5F5F5F5F5F5F5E2F5F5F5F5E2E200E2E2F5F5F5F5E2F5E2F5F5F5F5F5F5F5F5F5F5E2CAF5F5CAE2F5F5F5F5F5F5F5F5F5F5F5F5F5F5E2F5F5F5F5F5F5F5F5F5F5F5F5F5F5F5F5F5F5F5F5F5F5F5F5F5
310
F5F5F5F5F5F5F5F5F5F5F5F5F5F5F5F5F5F5F5F5F5F5F5F5F5F5F5E2F5F5F5F5E2E200E2E2F5F5F5F5E2F5E2F5F5F5F5F5F5F5F5F5F5E2CAF5F5CAE2F5F5F5F5F5F5F5F5F5F5F5F5F5F5E2F5F5F5F5F5F5F5F5F5F5F5F5F5F5F5F5F5F5F5F5F5F5F5F5F5F5F5F5F5F5F5F5F5F5F5F5F5F5F5F5F5F5F5F5F5F5F5F5F5F5F5F5
310
E2F5F5F5F5E2E200E2E2F5F5F5F5E2F5E2F5F5F5F5F5F5F5F5F5F5E2CAF5CAF5E2F5F5F5F5F5F5F5F5F5F5F5F5F5F5E2F5F5F5F5F5F5F5F5F5F5F5F5F5F5F5F5F5F5F5F5F5F5F5F5F5F5F5F5F5F5F5F5F5F5F5F5F5F5F5F5F5F5F5F5F5F5F5F5F5F5F5F5E2F5F5F5F5E2E200E2E2F5F5F5F5E2F5E2F5F5F5F5F5F5F5F5E2E2
310
E2F5CACAF5E2F5F5F5F5F5F5F5F5F5F5F5F5F5F5E2F5F5F5F5F5F5F5F5F5F5F5F5F5F5F5F5F5F5F5F5F5F5F5F5F5F5F5F5F5F5F5F5F5F5F5F5F5F5F5F5F5F5F5F5F5F5F5F5F5F5F5F5E2F5F5F5F5E2E200E2E2F5F5F5F5E2F5E2F5F5F5F5E2E2E2E2F5F5E2F5CACAF5E2F5F5F5F5F5F5F5F5F5F5F5F5F5F5E2F5F5F5F5F5F5
310
F5F5F5F5F5F5F5F5F5F5F5F5F5F5F5F5F5F5F5F5F5F5F5F5F5F5F5F5F5F5F5F5F5F5F5F5F5F5F5F5F5F5F5F5F5F5E2F5F5F5F5E2E2FFE2E2F5F5F5F5E2F5E2E2E2E2E2F5F5F5F5F5F5E2F5CACAF5E2F5F5F5F5F5F5F5F5F5F5F5F5F5F5E2F5F5F5F5F5F5F5F5F5F5F5F5F5F5F5F5F5F5F5F5F5F5F5F5F5F5F5F5F5F5F5F5F5
310
F5F5F5F5F5F5F5F5F5F5F5F5F5F5F5F5F5F5F5E2F5F5F5F5E2E200E2E2F5F5F5F5E2F5E2E2E2E2E2F5F5F5F5F5F5E2F5CACAF5E2E2E2E2E2E2E2E2E2E2E2E2E2F5F5E2F5F5F5F5F5F5F5F5F5F5F5F5F5F5F5F5F5F5F5F5F5F5F5F5F5F5F5F5F5F5F5F5F5F5F5F5F5F5F5F5F5F5F5F5F5F5F5F5F5F5F5F5E2F5F5F5F5E2E200
310
E2E2F5F5F5F5E2F5E2E2E2E2E2E2F5F5F5F5F5E2F5CACAF5E2F5F5F5F5F5F5F5F5F5F5F5E2F5F5E2F5F5F5F5F5F5F5F5F5F5F5F5F5F5F5F5F5F5F5F5F5F5F5F5F5F5F5F5F5F5F5F5F5F5F5F5F5F5F5F5F5F5F5F5F5F5F5F5F5F5F5F5E2F5F5F5F5E2E200E2E2F5F5F5F5E2F5E2E2E2E2E2E2E2E2E2F5F5E2F5CACAF5E2F5F5
310
F5F5F5F5F5F5F5F5F5E2F5F5E2F5F5F5F5F5F5F5F5F5F5F5F5F5F5F5F5F5F5F5F5F5F5F5F5F5F5F5F5F5F5F5F5F5F5F5F5F5F5F5F5F5F5F5F5F5F5F5F5F5F5F5F5E2F5F5F5F5E2E2FFE2E2F5F5F5F5E2F5E2F5F5F5F5E2E2F5E2E2F5E2F5CACAF5E2F5F5F5F5F5F5F5F5F5F5F5F5E2F5E2F5F5F5F5F5F5F5F5F5F5F5F5F5F5
310
F5F5F5F5F5F5F5F5F5F5F5F5F5F5F5F5F5F5F5F5F5F5F5F5F5F5F5F5F5F5F5F5F5F5F5F5F5F5E2F5F5F5F5E2E200E2E2F5F5F5F5E2F5E2F5F5F5F5F5E2E2E2E2F5E2CAF5F5CAE2F5F5F5F5E2E2F5F5F5F5F5F5E2F5E2F5F5F5F5F5F5F5F5F5F5F5F5F5F5F5F5F5F5F5F5F5F5F5F5F5F5F5F5F5F5F5F5F5F5F5F5F5F5F5F5F5
310
F5F5F5F5F5F5F5F5F5F5F5E2F5F5F5F5E2E200E2E2F5F5F5F5E2F5E2F5F5CAE2E2F5E2E2E2F5E2CAF5F5CAE2F5F5E2E2E2E2E2E2F5F5F5F5E2F5E2F5F5F5F5F5F5F5F5F5F5F5F5F5F5F5F5F5F5F5F5F5F5F5F5F5F5E2E2E2E2F5F5F5F5F5F5F5F5F5F5F5F5F5F5F5F5F5F5F5F5F5F5E2F5F5F5F5E2E200E2E2F5F5F5F5E2F5
310
E2F5F5E2CAF5F5F5E2E2F5E2CAF5F5CAE2F5E2E2E2F5E2E2F5F5F5F5F5E2F5E2F5F5F5F5F5F5F5F5F5F5F5F5F5F5F5F5F5F5F5F5F5F5F5F5F5F5E2E2E2E2F5F5F5F5F5F5F5F5F5F5F5F5F5F5F5F5F5F5F5F5F5F5E2F5F5F5F5E2E200E2E2F5F5F5F5E2F5E2F5F5F5E2CAF5F5E2E2F5E2CAF5F5CAE2F5E2E2F5E2E2E2E2E2E2
310
E2F5E2F5E2F5F5F5F5F5F5F5F5F5F5F5F5F5F5F5F5F5F5F5F5F5F5F5F5F5F5E2E2E2E2E2E2E2E2E2E2E2E2E2E2E2E2E2E2E2E2E2E2E2E2F5F5E2F5F5F5F5E2E200E2E2F5F5F5F5E2F5E2F5F5F5E2F5CAF5E2E2E2CAF5F5F5F5CAE2E20F0FF5F5F5F5F5F5F5F5E2F5E2F5F5F5F5F5F5F5F5F5F5F5F5F5F5F5F5F5F5F5F5F5F5
310
F5F5F5F5E2E2E2E2E2E2E2E2E2E2E2E2E2E2E2E2E2E2E2F5F5F5F5F5F5F5E2F5F5F5F5E2E200E2F5F5F5F5F5E2F5E2F5F5F5E2F5F5CAE2F5E2E2E2E2E2E2E2E2CACAE20FF5F5F5F5F5F5F5F5E2E2F5F5F5F5F5F5F5F5F5F5F5F5F5F5F5F5F5F5F5F5F5F5F5F5F5F5E2E2E2E2E2E2E2E2E2E2E2E2E2E2E2E2E2E2E2F5F5F5F5
310
F5F5F5E2F5F5F5F5F5E200E2F5F5F5F5F5E2F5E2F5F5F5E2F5F5F5CAE2F5E2E2E2E2E2CACACA0FECCACAF5F5F5F5F5F5F5E2E2F5F5F5F5F5F5F5F5F5F5F5F5F5F5F5F5F5F5F5F5F5F5F5F5F5F5F5F5F5F5F5F5F5F5F5F5F5F5F5F5F5F5F5F5F5F5F5F5F5F5F5F5E2F5F5F5F5F5E200E2F5F5F5F5F5E2F5E2F5F5F5F5E2F5F5
310
E2E2CAE2CAE2CACACACACACACAE2F5F5F5F5F5F5F5E2E2E2F5F5F5F5F5F5F5F5F5F5F5F5F5F5F5F5F5F5F5F5F5F5F5F5F5F5E2E2E2E2E2E2E2E2E2E2E2E2E2F5F5F5F5F5F5F5F5F5F5F5F5F5E2F5F5F5F5F5E200E2F5F5F5F5F5E2F5E2F5F5F5F5E2E2E2E2CACACACAE2CACACAE2F5F5F5F5F5F5F5F5F5F5F5F5F5E2F5F5F5
310
F5F5F5F5F5F5F5F5F5F5F5F5F5F5F5F5F5F5F5F5F5F5F5E2E2E2E2E2E2E2E2E2E2E2E2E2F5F5F5F5F5F5F5F5F5F5F5F5F5E2F5F5F5F5F5E200E2F5F5F5F5F5E2F5E2CAE2CAE2CACACA28E2CACACACAF5F5F5F5F5F5F5F5F5F5F5F5F5F5F5F5F5E2F5F5F5F5F5F5F5F5F5F5F5F5F5F5F5F5F5F5F5F5F5F5F5F5F5F5E2E2E2E2
310
E2E2E2E2E2E2E2E2E2E2E2E2E2E2E2E2E2E2E2E2F5F5E2F5F5F5F5F5E200E2F5F5F5F5F5E2F5E2CACA2828ECCACACACAECF5F5F5F5F5F5F5F5F5F5F5F5F5F5F5F5F5F5F5F5E2F5F5F5F5F5F5F5F5F5F5F5F5F5F5F5F5F5F5F5F5F5F5F5F5F5F5E2E2E2E2E2E2E2E2E2E2E2E2E2E2E2E2E2E2E2E2E2E2E2E2F5F5E2F5F5F5F5
310
F5E23FE2F5F5F5F5F5E2F5E2CACACACACAE2F5F5F5F5F5F5F5F5F5F5F5F5F5F5F5F5F5F5F5F5F5F5F5F5E2F5F5F5F5F5F5F5F5F5F5F5F5F5F5F5F5F5F5F5F5F5F5F5F5F5F5E2E2E2E2E2E2E2E2E2E2E2E2E2E2E2E2E2E2E2E2E2E2E2F5F5F5E2F5F5F5F5F5E200E2F5F5F5F5F5E2F5E2E2E2E2E2E2E2E2E2E2E2E2E2E2E2E2
310
E2E2E2E2E2E2E2E2E2E2E2E2E2E2E2E2F5F5F5F5F5F5F5F5F5F5F5F5F5F5F5F5F5F5F5F5F5F5F5F5F5F5F5F5F5F5F5F5F5F5F5F5F5F5F5F5F5F5F5F5F5F5F5F5F5F5F5F5E2F5F5F5F5F5E23EE2F5F5F5F5F5E2F5F5F5F5F5F5F5F5E2E2E2E2E2E2E2E2E2E2E2E2E2E2E2E2E2F5F5F5F5F5F5F5F5F5F5F5F5F5F5F5F5F5F5F5
310
F5F5F5F5F5F5F5F5F5F5F5F5F5F5F5F5F5F5F5F5F5F5F5F5F5F5F5F5F5F5F5F5F5F5F5F5F5F5F5F5F5E2F5F5F5F5F5E200E2F5F5F5F5F5E2F5F5F5F5F5F5F5F5E2E2E2E2E2E2E2E2E2E2E2E2E2E2E2E2E2F5F5F5F5F5F5F5F5F5F5F5F5F5F5F5F5F5F5F5F5F5F5F5F5F5F5F5F5F5F5F5F5F5F5E2E2E2E2E2E2E2E2E2E2E2E2
310
E2E2E2E2E2E2F5F5F5F5F5F5F5F5E2F5F5F5F5F5E200E2E2F5F5F5F5E2F5F5F5F5F5F5F5F5F5F5F5F5F5F5F5F5F5F5F5F5F5F5F5F5F5F5F5F5F5F5F5F5F5F5F5F5F5F5F5F5F5F5F5F5F5F5F5F5F5F5F5F5F5F5F5F5F5F5F5E2E2E2E2E2E2E2E2E2E2E2E2E2E2E2E2E2F5F5F5F5F5F5F5F5F5E2F5F5F5F5E2E2BFE2E2F5F5F5
310
F5E2F5F5F5F5F5F5F5F5F5F5F5F5F5F5F5F5F5F5F5F5F5F5F5F5F5F5F5F5F5F5F5F5F5F5F5F5F5F5F5F5F5F5F5F5F5F5F5F5F5F5F5F5F5F5F5F5F5F5F5E2E2E2E2E2E2E2E2E2E2E2E2E2E2E2E2E2F5F5F5F5F5F5F5F5F5E2F5F5F5F5E2E200E2E2F5F5F5F5E2F5F5F5F5F5F5F5F5F5F5F5F5F5F5F5F5F5F5F5F5F5F5F5F5F5
310
F5F5F5F5F5F5F5CAE2E2E2E2E2E2E2E2E2E2E2CAF5F5F5F5F5F5F5F5F5F5F5F5F5F5E2E2E2E2E2E2E2E2E2E2E2E2E2E2E2E2E2E2E2E2E2E2E2E2E2F5E2F5F5F5F5E2E200E2E2F5F5F5F5E2F5F5F5F5F5F5F5F5F5F5F5F5F5F5F5F5F5F5F5F5F5F5F5F5F5F5F5F5F5F5F5F5CAF5F5F5F5F5F5F5F5F5F5F5CAF5F5F5F5F5F5F5
310
F5F5F5F5F5F5F5E2E2E2E2E2E2E2E2E2E2E2E2E2E2E2E2E2E2E2E2E2E2E2E2E2F5E2F5F5F5F5E2E200E2E2F5F5F5F5E2F576F5F5F5F5F5F5F5F5F5F5F5F5F5F5F5F5F5F5F5F5F5F5F5F5F5F5F5F5F5F5E2CAF5F5F5F5F5F5F5F5F5F5CAF5F5F5F5F5F5F5F5F5F5F5F5F5F5F5F5F5F5F5F5F5F5F5F5F5F5F5F5F5F5F5F5F5F5
310
F5F5F5F5F5F5E2F5F5F5F5E2E200E2E2F5F5F5F5E2F5E2E2E2E2E2E2E2E2E2E2E2E2E2E2E2E2E2E2E2E2E2E2E2E2E2E2E2E2E2E2E2E2E2E2E2F5F5F5F5F5F5F5CAE2F5F5F5F5F5F5F5F5F5F5F5F5F5F5E2E2E2E2E2E2E2E2E2E2E2E2E2E2E2E2E2E2E2E2E2E2F5F5F5F5E2F5F5F5F5E2E200E2E2F5F5F5F5E2F576F5F5F5F5
310
F5F5F5F5F5F5F5F5F5F5F5F5F5F5F5F5F5F5F5F5F5F5F5F5F5F5F5F5F5E2F5F5F5F5F5F5F5CAE2F5F5F5F5F5F5F5F5F5F5F5F5F5F5E2E2E2E2E2E2E2E2E2E2E2E2E2E2E2E2E2E2E2E2E2E2F5F5F5F5E2F5F5F5F5E2E200E2E2F5F5F5F5E2F5E2E2E2E2E2E2E2E2E2E2E2E2E2E2E2E2E2E2E2E2E2E2E2E2E2E2E2E2E2E2E2E2
310
E2E2E2F5F5F5F5F5F5F5CAE2F5F5F5F5F5F5F5F5F5F5F5F5F5F5E2E2E2E2E2E2E2E2E2E2E2E2E2E2E2E2E2E2E2E2E2E2E2E2E2F5E2F5F5F5F5E2E200E2E2F5F5F5F5E2F576F5F5F5F5F5F5F5F5F5F5F5F5F5F5F5F5F5F5F5F5F5F5F5F5F5F5F5F5F5F5E2CAF5F5F5F5F5F5F5F5F5CAE2F5F5F5F5F5F5F5F5F5F5F5F5F5F5E2
310
E2E2E2E2E2E2E2E2E2E2E2E2E2E2E2E2E2E2E2E2E2E2E2E2F5E2F5F5F5F5E2E200E2E2F5F5F5F5E2F576F5F5F5F5F5F5F5F5F5F5F5F5F5F5F5F5F5F5F5F5F5F5F5F5F5F5F5F5F5F5E2F5CAF5F5F5F5F5F5F5CAF5E2F5F5F5F5F5F5F5F5F5F5F5F5F5F5E2E2E2E2E2E2E2E2E2E2E2E2E2E2E2E2E2E2E2E2E2E2E2E2E2F5E2F5
310
F5F5F5E2E200E2E2F5F5F5F5E2F576F5F5F5F5F5F5F5F5F5F5F5F5F5F5F5F5F5F5F5F5F5F5F5F5F5F5F5F5F5F5E2F5CAF5F5F5F5F5F5F5CAF5E2F5F5F5F5F5F5F5F5F5F5F5F5F5F5E2E2E2E2E2E2E2E2E2E2E2E2E2E2E2E2E2E2E2E2E2E2E2E2E2F5E2F5F5F5F5E2E200E2E2F5F5F5F5E2F576F5F5F5F5F5F5F5F5F5F5F5F5
310
F5F5F5F5F5F5F5F5F5F5F5F5F5F5F5F5F5F5E2F5CAF5F5F5F5F5F5F5CAF5E2F5F5F5F5F5F5F5F5E2E2E2F5F5F5F5F5F5F5F5F5F5F5F5F5F5F5F5F5F5F5F5F5F5F5F5F5F5F5F5F5E2F5F5F5F5E2E200E2E2F5F5F5F5E2F576F5F5F5F5F5F5F5F5F5F5F5F5F5F5F5F5F5F5F5F5F5F5F5F5F5F5F5F5F5F5E2F5CAF5F5F5F5F5F5
310
F5CAF5E2F5F5F5F5F5F5F5E2E2E2E2E2F5F5F5F5F5F5F5F5F5F5F5F5F5F5F5F5F5F5F5F5F5F5F5F5F5F5F5F5E2F5F5F5F5E2E200E2E2F5F5F5F5E2F576F5F5F5F5F5F5F5F5F5F5F5F5F5F5F5F5F5F5F5F5F5F5F5F5F5F5F5F5F5F5E2F5F5CAF5F5F5F5F5CAF5F5E2F5F5F5F5F5F5E2E2F5E2E2E2E2F5E2E2E2E2E2E2F5F5F5
310
F5F5F5F5F5F5F5F5F5F5F5F5F5F5F5F5F5E2F5F5F5F5E2E200E2E2F5F5F5F5E2F576F5F5F5F5F5F5F5F5F5F5F5F5F5F5F5F5F5F5F5F5F5F5F5F5F5F5F5F5F5F5E2F5F5CAF5F5F5F5F5CAF5F5E2F5F5F5F5F5F5E2E2F5E2F5E2E2F5E2E2E2E2E2E2E2E2E2E2E2E2E2E2E2E2E2E2E2E2E2E2E2E2F5F5E2F5F5F5F5E2E200E2E2
310
F5F5F5F5E2F576F5F5F5F5F5F5F5F5F5F5F5F5F5F5F5F5F5F5F5F5F5F5F5F5F5F5F5F5F5F5E2F5F5CAF5F5F5F5F5CAF5F5E2F5F5F5F5F5F5F5E2E2F5E2E2F5F5E2E2E2E2E2E2E2E2E2E2E2E2E2E2E2E2E2E2E2E2E2E2E2E2F5F5E2F5F5F5F5E2E200E2E2F5F5F5F5E2F576F5F5F5F5F5F5F5F5F5F5F5F5F5F5F5F5F5F5F5F5
310
F5F5F5F5F5F5F5F5F5F5E2F5F5CAF5F5F5F5F5CAF5F5E2F5F5F5F5F5F5F5E2E2E2E2E2F5F5F5F5F5F5F5F5F5F5F5F5F5F5F5F5F5F5F5F5F5F5F5F5F5F5F5F5E2F5F5F5F5E2E200E2F5F5F5F5F5E2F576F5F5F5F5F5F5F5F5F5F5F5F5F5F5F5F5F5F5F5F5F5F5F5F5F5F5F5F5F5F5E2F5F5F5CAF5F5F5CAF5F5F5E2F5F5F5F5
310
F5F5F5F5F5F5F5F5F5F5F5F5F5F5F5F5F5F5F5F5F5F5F5F5F5F5F5F5F5F5F5F5F5F5F5F5E2F5F5F5F5F5E200E2F5F5F5F5F5E2F576F5F5F5F5F5F5F5F5F5F5F5F5F5F5F5F5F5F5F5F5F5F5F5F5F5F5F5F5F5F5E2F5F5F5CAF5F5F5CAF5F5F5E2F5F5F5F5F5F5F5F5F5F5F5F5F5F5F5F5F5F5F5F5F5F5F5F5F5F5F5F5F5F5F5
310
F5F5F5F5F5F5F5F5F5E2F5F5F5F5F5E200E2F5F5F5F5F5E2F576F5F5F5F5F5F5F5F5F5F5F5F5F5F5F5F5F5F5F5F5F5F5F5F5F5F5F5F5F5F5E2F5F5F5CAF5F5F5CAF5F5F5E2F5F5F5F5F5F5F5F5F5F5F5F5F5F5F5F5F5F5F5F5F5F5F5F5F5F5F5F5F5F5F5F5F5F5F5F5F5F5F5F5E2F5F5F5F5F5E200E2F5F5F5F5F5E2F576F5
310
F5F5F5F5F5F5F5F5F5F5F5F5F5F5F5F5F5F5F5F5F5F5F5F5F5F5F5F5F5E2F5F5F5CAF5F5F5CAF5F5F576767676767676767676767676767676767676767676E2E2E2F5F5F5F5F5F5F5F5F5F5F5F5F5F5F5F5E2F5F5F5F5F5E200E2F5F5F5F5F5E2F576F5F5F5F5F5F5F5F5F5F5F5F5F5F5F5F5F5F5F5F5F5F5F5F5F5F5F5F5
310
F5F5E2F5F5F5F5CAF5CAF5F5F5F5E276F5F5F5F5F5F5F5F5F5F5F5F5F5F5F5F5F5F5F5F5F5F5F5F5F5F5F5F5F5F5F5F5F5F5F5F5F5F5F5E2F5F5F5F5F5E200E2F5F5F5F5F5E2F576F5F5F5F5F5F5F5F5F5F5F5F5F5F5F5F5F5F5F5F5F5F5F5F5F5F5F5F5F5E2E2F5F5F5F5CAF5CAF5F5F5F5E2F5F5F5F5F5F5F5F5F5F5F5F5
310
F5F5F5F5F5F5F5F5F5F5F5F5F5F5F5F5F5F5F5F5F5F5F5F5F5F5F5F5E2F5F5F5F5F5E200E2F5F5F5F5F5E2F576F5F5F5F5F5F5F5F5F5F5F5F5F5F5F5F5F5F5F5F5F5F5F5F5F5E2E2E2E2F5E2F5F5F5F5CAF5CAF5F5F5F5E2F5F5F5F5F5F5F5F5F5F5F5F5F5F5F5F5F5F5F5F5F5F5F5F5F5F5F5F5F5F5F5F5F5F5F5F5F5F5F5
310
F5E2F5F5F5F5F5E200E2F5F5F5F5F5E2F576F5F5F5F5F5F5F5F5F5F5F5F5F5F5F5F5F5F5F5F5F5E2E2E2E2F5F5F5F5F5E2F5F5F5F5CAF5CAF5F5F5F5E2F5F5F5F5F5F5F5F5F5F5F5F5F5F5F5F57676767676E2E2E2E2E2E2E2E2E2F5F5F5F5F5F5F5F5F5F5E2F5F5F5F5F5E236E2F5F5F5F5F5E2F576F5F5F5F5F5F5F5F5F5
310
F5F5F5F5F5F5F5F5E2E2E2E2F5F5F5F5F5F5F5F5F5E2F5F5F5F5F5CAF5F5F5F5F5E2F5F5F5F5F5F5F5F5F5F5F5F5F5F5F5F576F5F5F5F5F5F5F5F5F5F5F5F5F5F5F5F5F5F5F5F5F5F5F5E2F5F5F5F5F5E200E2F5F5F5F5F5E2F576F5F5F5F5F5F5F5F5F5F5F5F5F5E2E2E2E2F5F5F5F5F5F5F5F5F5F5F5F5F5E2F5F5F5F5F5
310
CAF5F5F5F5F5E2F5F5F5F5F5F5F5F5F5F5F5F5F5F5F5F576F5F5F5F5F5F5F5F5F5F5F5F5F5F5F5F5F5F5F5F5F5F5F5E2F5F5F5F5F5E236E2E2F5F5F5F5E2F576F5F5F5F5F5F5F5F5F5E2E2E2E2F5F5F5F5F5F5F5F5F5F5F5F5F5F5F5F5F5E2F5F5F5F5F5CAF5F5F5F5F5E2F5F5F5F5F5F5F5F5F5F5F5F5F5F5F5F576F5F5F5
310
F5F5F5F5F5F5F5F5F5F5F5F5F5F5F5F5F5F5F5F5E2F5F5F5F5E2E200E2E2F5F5F5F5E2F576F5F5F5F5F5E2E2E2E2F5F5F5F5F5F5F5F5F5F5F5F5F5F5F5F5F5F5F5F5F5E2F5F5F5F5F5CAF5F5F5F5F5E2F5F5F5F5F5F5F5F5F5F5F5F5F5F5F5F576F5F5F5F5F5F5F5F5F5F5F5F5F5F5F5F5F5F5F5F5F5F5F5E2F5F5F5F5E2E2
310
36E2E2F5F5F5F5E2F576F5E2E2E2E2F5F5F5F5F5E2E2E2E2E2E2E2E2E2E2F5F5F5F5F5F5F5F5F5F5E2F5F5F5F5CAF5CAF5F5F5F5E2E2E2E2E2E2E2E2E2E2E2E2E2E2E2E2E276E2E2E2E2E2E2E2E2E2E2E2E2F5F5F5F5F5F5F5F5F5F5F5E2F5F5F5F5E2E200E2E2F5F5F5F5E2F576E2F5F5F5F5F5F5F5F5F5E2E2E2E2E2E2E2
310
E2E2E2F5F5F5F5F5F5F5F5F5F5E2F5F5F5F5CAF5CAF5F5F5F5E2F5F5F5F5F5F5F5F5F5F5F5F5F5F5F5F5F5F5F5F5F5F5F5F5F5F5F5F5E2F5F5F5F5F5F5F5F5F5F5F5E2F5F5F5F5E2E236E2E2F5F5F5F5E2F576F5F5F5F5F5E2E2E2E2E2E2E2E2E2E2E2E2E2E2E2E2F5F5F5F5F5F5F5F5F5E2F5F5F5F5CAF5CAF5F5F5F5E2F5
310
F5F5F5F5F5F5F5F5F5F5F5F5F5F5F5F5F5F5F5F5F5F5F5F5F5F5F5F5E2F5F5F5F5F5F5F5F5F5F5E2F5F5F5F5E2E200E2E2F5F5F5F5E2F576F5F5E2E2E2E2E2E2E2E2E2E2E2E2E2E2E2E2E2E2E2F5F5F5F5F5F5F5F5F5E2F5F5F5F5CAF5CAF5F5F5F5E2F5F5F5F5F5F5F5F5F5F5F5F5F5F5F5F5F5F5F5F5F5F5F5F5F5F5F5F5
310
F5E2F5F5F5F5F5F5F5F5F5F5E2F5F5F5F5E2E236E2E2F5F5F5F5E2F576F5F5E2E2E2E2E2E2E2E2E2E2E2E2E2E2E2E2E2E2E2F5F5F5F5F5F5F5F5F5E2F5F5F5CAF5F5F5CAF5F5F5E2F5F5F5F5F5F5F5F5F5F5F5F5F5F5F5F5F5F5F5F5F5F5F5F5F5F5F5F5F5E2F5F5F5F5F5F5F5F5F5F5E2F5F5F5F5E2E200E2E2F5F5F5F5E2
310
F576F5F5F5E2E2E2E2E2E2E2E2E2E2E2E2E2E2E2E2E2E2F5F5F5F5F5F5F5F5F5E2F5F5F5CAF5F5F5CAF5F5F5E2F5F5F5F5F5F5F5F5F5F5F5F5F5F5F5F5F5F5F5F5F5F5F5F5F5F5F5F5F5E2F5F5F5F5F5F5F5F5F5F5E2F5F5F5F5E2E236E2E2F5F5F5F5E2F576F5F5F5E2E2E2E2E2E2E2E2E2E276E2E2E2E2E2E2E2F5F5F5F5
310
F5F5F5F5F5E2F5F5F5CAF5F5F5CAF5F5F5E2F5F5F5F5F5F5F5F5F5F5F5F5F5F5F5F5F5F5F5F5F5F5F5F5F5F5F5F5F5F5E2F5F5F5F5F5F5F5F5F5E2F5F5F5F5E2E200E2E2F5F5F5F5E2767676F5F5F5F5F5F5F5F5F5F5F5F576F5F5F5F5F5F5F5F5F5F5F5F5F5F5F5F5E2F5F5F5CAF5F5F5CAF5F5F5E2F5F5F5F5F5F5F5F5F5
310
F5F5F5F5F5F5F5F5F5F5F5F5F5F5F5F5F5F5F5F5F5E2F5F5F5F5F5F5F5F5F5E2F5F5F5F5E2E236E2E2F5F5F5F5E2F576F5F5F5F5F5F5F5F5F5F5F5F5F576F5F5F5F5F5F5F5F5F5F5F5F5F5F5F5F5E2F5F5CAF5F5F5F5F5CAF5F5E2F5F5F5F5F5F5F5F5F5F5F5F5F5F5F5F5F5F5F5F5F5F5F5F5F5F5F5F5F5F5E2F5F5F5F5F5
310
F5F5F5F5E2F5F5F5F5E2E200E2E2F5F5F5F5E2F576F5F5F5F5F5F5F5F5F5F5F5F5F576F5F5F5F5F5F5E2E2F5F5F5F5F5F5F5F5E2F5F5CAF5F5F5F5F5CAF5F5E2F5F5F5F5F5F5F5F5F5F5F5F5F5F5F5F5F5F5F5F5F5F5F5F5F5F5F5F5F5F5E2F5F5F5F5F5F5F5F5F5E2F5F5F5F5E2E236E2E2F5F5F5F5E2F576F5F5F5F5F5F5
310
F5F5F5F5F5F5F5F57676E2E2E2E2F5E2F5F5F5F5F5F5F5F5E2F5F5CAF5F5F5F5F5CAF5F5E2F5F5F5F5F5F5F5F5F5F5F5F5F5F5F5F5F5F5F5F5F5F5F5F5F5F5F5F5F5F5F5E2F5F5F5F5F5F5F5F5E2F5F5F5F5E2E200E2E2F5F5F5F5E2F576F5F5F5F5F5F5F5F5F5F5F5F5F5E2E2E276F5F5F5F5E2F5F5F5F5F5F5F5F5E2F5F5
310
CAF5F5F5F5F5CAF5F5E2F5F5F5F5F5F5F5F5F5F5F5F5F5F5F5F5F5F5F5F5F5F5F5F5F5F5F5F5F5F5F5E2F5F5F5F5F5F5F5F5E2F5F5F5F5E2E236E2E2F5F5F5F5E2F576F5F5F5F5F5F5F5F5F5F5F5CAE2F5F5F5F5F5F5F5F5F5E2F5F5F5F5F5F5F5E2F5CAF5F5F5F5F5F5F5CAF5E2F5F5F5F5F5F5F5F5F5F5F5F5F5F5F5F5F5
310
F5F5F5F5F5F5F5F5F5F5F5F5F5F5E2F5F5F5F5F5F5F5F5E2F5F5F5F5E2E200E2E2F5F5F5F5E2F576F5F5F5F5F5F5F5F5F5F5F5E2CAF5F5F5F5F5F5F5F5F5E2F5F5F5F5F5F5F5E2F5CAF5F5F5F5F5F5F5CAF5E2F5F5F5F5F5F5F5F5F5F5F5F5F5F5F5F5F5F5F5F5F5F5F5F5F5F5F5F5F5F5F5E2F5F5F5F5F5F5F5F5E2F5F5F5
310
F5E2E236E2E2F5F5F5F5E2F576F5F5F5F5F5F5F5F5F5F5F5E2F5CAF5F5F5F5F5F5F5F5E2F5F5F5F5F5F5F5E2F5CAF5F5F5F5F5F5F5CAF5E2F5F5F5F5F5F5F5F5F5F5F5F5F5F5F5F5F5F5F5F5F5F5F5F5F5F5F5F5F5F5F5F5E2F5F5F5F5F5F5F5E2F5F5F5F5E2E200E2F5F5F5F5F5E2F576F5F5F5F5F5F5F5F5F5F5F5F5E2CA
310
F5F5F5F5F5F5F5F5E2F5F5F5F5F5F5F5E2F5CAF5F5F5F5F5F5F5CAF5E2F5F5F5F5F5F5F5F5F5F5F5F5F5F5F5F5F5F5F5F5F5F5F5F5F5F5F5F5F5F5F5F5E2F5F5F5F5F5F5F5E2F5F5F5F5F5E200E2F5F5F5F5F5E2F576F5F5F5F5F5F5F5F5F5F5F5F5E2F5CAF5F5F5F5F5F5F5F5E2F5F5F5F5F5F5E2CAF5F5F5F5F5F5F5F5F5
310
CAE2F5F5F5F5F5F5F5F5F5F5F5F5F5F5F5F5F5F5F5F5E2E2E2F5F5F5F5F5F5F5F5F5E2F5F5F5F5F5F5F5E2F5F5F5F5F5E236E2F5F5F5F5F5E2F576F5F5F5F5F5F5F5F5F5F5F5F5E2F5F5CAF5F5F5F5F5F5F5E2F5F5F5F5F5F5E2CAF5F5F5F5F5F5F5F5F5CAE2F5F5F5F5F5F5F5F5F5F5F576767676767676767676E2E2E2E2
310
E2E2E2E2E2E2F5E2F5F5F5F5F5F5F5E2F5F5F5F5F5E200E2F5F5F5F5F5E2F576F5F5F5F5F5F5F5F5F5F5F5F5E2F5F5F5CAF5F5F5F5F5F5E2F5F5F5F5F5F5E2CAF5F5F5F5F5F5F5F5F5CAE2F5F5F5F5F5F5F5F5F57676F5F5F5F5F5F5F5F5F5E2E2E2E2E2E2E2E2E2E2E2F5F5E2F5F5F5F5F5F5E2F5F5F5F5F5E236E2F5F5F5
310
F5F5E2F576F5F5F5F5F5F5F5F5F5F5F5F5F5E2F5F5F5CAF5F5F5F5F5E2F5F5F5F5F5F5E2CAF5F5F5F5F5F5F5F5F5CAE2F5F5F5F5F5F5F57676F5F5F5F5F5F5F5F5F5F5F5F5F5F5F5F5F5F5F5F5F5F5F5F5E2F5F5F5F5F5F5E2F5F5F5F5F5E200E2F5F5F5F5F5E2F576F5F5F5F5F5F5F5F5F5F5F5F5F5E2F5F5F5F5CAF5F5F5
310
F5F5E2F5F5F5F5F5CAF5F5F5F5F5F5F5F5F5F5F5CAF5F5F5F5767676F5F5F5F5F5F5F5F5F5F5F5F5F5F5F5F5F5F5F5F5F5F5F5F5F5F5E2F5F5F5F5F5F5E2F5F5F5F5F5E236E2F5F5F5F5F5E2F576F5F5F5F5F5F5F5F5E2E2E2F5F5E2F5F5F5F5CAF5F5F5F5F5E2F5F5F5F5F5CAF5F5F5F5F5F5F5F5F5F5F5CAF5F5767676F5
310
F5F5F5F50FF5F5F5F5F5F5F5F5F5E2E2E2E2E2E2E2E2F5F5F5F5F5E2F5F5F5F5F5F5E2F5F5F5F5F5E200E2F5F5F5F5F5E2F576F5F5F5F5F5E2E2E2E2E2E2F5F5E2F5F5F5F5F5CAF5F5F5F5E2F5F5F5F57676E2E2E2E2E2E2E2E2E2E2E27676767676F5F5F5F5F50F7676767676767676767676E2E2E2E2E2E2E2F5F5F5F5F5
310
F5E2F5F5F5F5F5E2F5F5F5F5F5E236E2F5F5F5F5F5E2F576F5F5E2E2E2E2E2F5F5F5F5F5F5F5E2F5F5F5F5F5CAF5F5F5E2F5F57676F5E2F5F5F5F5F5F5F5F5F5F5F5F5F5F57676F50F0F0F0FCAE20FF5F5F5F5F5F5F5F5F5F5F5F5F5F5F5F5F5F5F5F5F5F5E2F5F5F5F5F5E2F5F5F5F5F5E200E2F5F5F5F5F5E2F576F5F5F5
310
F5F5F5F5F5F5F5F5F5F5F5E2F5F5F5F5F5F5CAF5F5F576767676F5E2F5F5F5F5F5F5F5F5F5F5F5F5F5F57676CA0FE2E2E2CAE20FF5F5F5F5F5F5F5F5F5F5F5F5F5F5F5F5F5F5F5F5F5F5E2F5F5F5F5F5E2F5F5F5F5F5E236E2E2F5F5F5F5E2F576F5F5F5F5F5F5F5F5F5F5F5F5F5F5E2F5F5F5F5F5F5F5CAF5F576F57676F5
310
E2F5F5F5F5F5F5F5F5F5F5F5F5CA76E2E2CAF5F5F5CAF5F5E20FF5F5F5F5F5F5F5E2E2E2E2E2E2E2E2E2F5F5F5F5F5E2F5F5F5F5F5E2F5F5F5F5E2E200E2E2F5F5F5F5E2F576F5F5F5F5F5F5F5F5F5F5F5F5F5F5E2F5F5F5F5F5F5F5F5CAF5E2F5F5F5F5E2F5F5F5F5F5F5F5F5F5E2E2E2CAF5F5F5CAF5F5CAF5CA0FE20F76
310
F5F5F5F5F5F5E2E2E2E2E2E2E2E2E2F5F5F5F5F5F5E2F5F5F5F5E2F5F5F5F5E2E236E2E2F5F5F5F5E2F576F5F5F5F5F5F5F5F5F5F5F5F5F5F5F5E2F5F5F5F5F5F5F5CAF5E2F5F5F5F5E2F5F5F5F5F5E2E2CAE2F5F5CAF5F5F5CAF5F50F0F0F0F0F0FE2CACA7676767676E2E2E2E2E2E2E2E2E2E2E2E2F5F5F5E2F5F5F5F5E2
310
F5F5F5F5E2E200E2E2F5F5F5F5E2F576F5F5F5F5F5F5F5F5F5F5F5F5F5F5F5E2F5F5F5F5F5F5F5F5CAF5E2F5F5F5E2F5E2E2CAE2F5F5CAF5F5CACAF5F5CA0F0F0F0F0FE2CACACACAF576F5F5F5F5F5F5F5F5F5F5F5F5F5F5F5F5F5E2F5F5E2F5F5F5F5E2F5F5F5F5E2E236E2E2F5F5F5F5E2F576F5F5F5F5F5F5F5F5F5F5F5
310
F5F5F5F5E2F5F5F5F5F5F5F5F5F5CAE2F5E2CAE2E2F5CACAF5F5CAF5F5F5CAE2CACA0F0FE2CACACACAE2F5F576F5F576F5F5F5F5F5F5F5F5F5F5F5F5F5F5F5F5F5E2E2E2F5F5F5F5E2F5F5F5F5E2E200E2E2F5F5F5F5E2F576F5F5F5F5F5F5F5F5F5F5F5F5F5F5F5E2F5F5F5F5F5F5F5F5F5E2E2E2F5CAF5F5F5CAF5F5CACA
310
CACACA0F0FE2CACACACAE2F5F5F5F5F5F5F576F576F5F5F5F5F5F5F5F5F5F5F5F5F5F5F5F5F5F5F5F5F5F5F5F5E2F5F5F5F5E2E236E2E2F5F5F5F5E2F576F5F5E2E2E2E2E2E2F5F5F5F5F5F5F5F5E2F5F5F5CAE2E2E2E2CAF5F5CACAF5F5CAF5CACACA0F0FF5E2CACACAE2F5F5F5F5F5F5F5F5F57676767676F5F5F5F5F5F5
310
F5F5F5F5F5F5F5F5F5F5F5F5F5F5F5F5F5F5E2F5F5F5F5E2E200E2E2F5F5F5F5E2F576F5F5E2E2E2E2E2E27676767676F5F5F5E2E2E2E2E2E2F5F5CAF5F5F5CAF5CA0F0F0F0FF5E2CACACACAF5F5F576F5F5F5F5F5F5767676F5F576F5F5F5F5F5F5F5F5F5F5F5F5F5F5F5F5F5F5F5F5F5F5F5F5F5F5E2F5F5F5F5E2E236E2
310
E2F5F5F5F5E2F576F5F5F5F5F5F5F5F5F5F5F5F5F576E2E2E2E2F5F5CAF5F5CACAF5F5CA0F28282828CACACACAF5F57676F5F5F5F576F576767676767676F5F576F5F5F5F5F5F5F5F5F5F5F5F5F5F5F5F5F5F5F5F5F5F5F5F5F5F5E2F5F5F5F5E2E200E2E2F5F5F5F5E2F576F5F5F5F5F5F5F5F5F5E2E2CAE276F5CAF5F5F5
310
CAF5F5CACA0F0F0F28E2CACACACAECF5F5F5F5F5F576F5F5F5F5767676767676F5F5F5F5F5F576F5F5F5F5F5F5F5F5F5F5F5F5F5F5F5F5F5F5F5F5F5F5F5F5F5E2F5F5F5F5E2E236E2E2F5F5F5F5E2F576F5F5F5F5F5E2E2CAE2F5F5CAF5F576CAF5F5CAF5CA0FCACAF5CACACACAECF5F5F5F5F5F5F5F5F5F5F576F5F5F5F5
310
F5F5F5F5F5F5F5F5F5767676F5F5F5F5F5F5F5F5F5F5F5F5F5F5F5F5F5F5F5F5F5F5F5F5F5E2F5F5F5F5E2E200E2E2F5F5F5F5E2F576F5E2CAE2E2F5F5CAF5F5CAF5F5F576F5CA0FCACACACACACACAE2F5F5F5F5F5F5F5F5F5F5F5F5F5F5F576F5F5F5F5F5F5F5F5F576767676F5F5F5F5F5F5F5F5F5F5F5F5F5F5F5F5F5F5
310
F5F5F5F5F5F5F5F5F5F5E2F5F5F5F5E2E200E2E2F5F5F5F5E2F576E2F5CAF5F5F5CAF5F5F5CACACA0F76CACACACACACACAE2F5F5F5F5F5F5F5F5F5F5F5F5F5F5F5F5F5F5F576F5F5F5F5F5767676F5F5F5F5F5F5F5F5F5F5F5F5F5F5F5F5F5F5F5F5F5F5F5F5F5F5F5F5F5F5F5F5E2F5F5F5F5E2E200E2E2F5F5F5F5E2F576
310
F5F5CAF5F5CAF5F5CACA28CACACACACACACAE2F5F5F5F5F5F5F5F5F5F5F5F5F5F5F5F5F5F5F5F5F5F5F5F57676767676F5F5F5F5F5F5F5F5F5F5F5F5F5F5F5F5F5F5F5F5F5F5F5F5F5F5F5F5F5F5F5F5F5F5F5E2F5F5F5F5E2E200E2E2F5F5F5F5E2F576F5CAF5F5CACA0F0FCACACACACACAE2F5F5F5F5F5F5F5F5F5F5F5F5
310
F5F5F5F5F5F5F5F5F5F5F5F5F5F576767676F5F5F5F5F5F5F5F5F5F5F5F5F5F5F5F5F5F5F5F5F5F5F5F5F5F5F5F5F5F5F5F5F5F5F5F5F5F5E2F5F5F5F5E2E200E2E2F5F5F5F5E2F576CAE2CA2828CACACACACAE2E2F5F5F5F5F5F5F5F5F5F5F5F5F5F5F5F5F5F5F5F5F5F5F5F5F576767676F5F5F576F5F5F5F5F5F5F5F5F5
310
F5F5F5F5F5F5F5F5F5F5F5F5F5F5F5F5F5F5F5F5F5F5F5F5F5F5F5F5F5E2F5F5F5F5E2E200E2E2F5F5F5F5E2F5CAE2CACACACACAE2CAF5F5F5F5F5F5F5F5F5F5F5F5F5F5F5F5F5F5F5F5F5F5F5F5F576767676F5F5F5F5F5F5F5F576F5F5F5F5F5F5F5F5F5F5F5F5F5F5F5F5F5F5F5F5F5F5F5F5F5F5F5F5F5F5F5F5F5F5F5
310
F5F5E2F5F5F5F5E2E200E2F5F5F5F5F5E2F5CACACAE2E2CAF5F5F5F5F5F5F5F5F5F5F5F5F5F5F5F5F5F5F5F5F5F5F5F5F576767676F5F5F5F5F5F5F5F5F5F5F5F576F5F5F5F5F5F5F5F5F5F5F5F5F5F5F5F5E2E2E2E2E2E2E2E2E2E2E2E2F5F5F5F5F5F5F5F5E2F5F5F5F5F5E200E2F5F5F5F5F5E2F5CACAF5F5F576F5F5F5
310
F5F5F5F5F5F5F5F5F5F5F5F5F5F5F5F5F5F576767676F5F5F5F5F5F5F5F5F5F5F5F5F5F5F5F5F576F5F5F5F5F5F5F5F5F5F5F5F5F5F5F5E2E2E2E2E2E2E2E2E2E2E2E2F5F5F5F5F5F5F5F5E2F5F5F5F5F5E200E2F5F5F5F5F5E2F5F5F5F5F5F5F576F5F5F5F5F5F5F5F5F5F5F5F5F5F5F5F5F576767676F5F5F5F5F5F5F5F5
310
F5F5F5F5F5F5F5F5F5F5F5F576F5F5F5F5F5F5F5F5F5F5F5F5F5F5F5E2E2E2E2E2E2E2E2E2E2E2E2E2E2E2E2E2E2F5F5E2F5F5F5F5F5E200E2F5F5F5F5F5E2F5F5F5F5F5F5F576F5F5F5F5F5F5F5F5F5F5F5F5F5F5767676F5F5F5F5F5F5F5F5F5F5F5F5F5F5F5F5F5F5F5F5F5F5F5F5F57676767676767676767676767676
310
7676E2E2E2E2E2E2E2E2E2E2E2E2E2E2E2E2E2F5F5E2F5F5F5F5F5E200E2F5F5F5F5F5E2F5F5F5F5F5F5F576F5F5F5F5F5F5F5F5F5F576767676F5F5F5F5F5F5F5F5F5F5F5F5F5F5F5F5F5F5F5F5F5F5F5F5F5F5F5F5F5F5F5F5F5F5F5F5F5F5F5F5F5F5F5E2E2E2E2E2E2E2E2E2E2E2E2E2E2E2E2E2E2F5F5E2F5F5F5F5F5
310
E200E2F5F5F5F5F5E2F5F5F5F5F5F5F576F5F5F5F5F5F5F5767676F5F5F5F5F5F5F5F5F5F5F5F5F5F5F5F5F5F5F5F5F5F5F5F5F5F5F5F5F5F5F5F5F5F5F5F5F5F5F5F5F5F5F5F5F5F5F5F5F5F5F5F5F5F5F5F5F5F5F5F5F5F5F5F5F5F5F5E2F5F5F5F5F5E200E2F5F5F5F5F5E2F5F5F5F5F5F5F5F576F5F576767676F5F5F5
310
F5F5F5F5F5F5F5F5F5F5F5F5F5F5F5F5F5F5F5F5F5F5F5F5F5F5F5F5F5F5F5F5F5F5F5F5F5F5F5F5F5F5F5F5F5F5F5F5F5F5F5F5F5F5F5F5F5F5F5F5F5F5F5F5F5F5F5E2F5F5F5F5F5E202E2F5F5F5F5F5E2F5F5F5F5F5F5F5F5767676F5F5F5F5F5F5F5F5F5F5F5F5F5F5F5F5F5F5F5F5F5F5F5F5F5F5F5F5F5F5F5F5F5F5
310
F5F5F5F5F5F5F5F5F5F5F5F5F5F5F5F5F5F5F5F5F5F5F5F5F5F5F5F5F5F5F5F5F5F5F5F5F5F5F5F5E2F5F5F5F5F5E233E2F5F5F5F5F5E2F5F5F5F5F5F5F5F5F5F5F5F5F5F5F5F5F5F5F5F5F5F5F5F5F5F5F5F5F5F5F5F5F5F5F5F5F5F5F5F5F5F5F5F5F5F5F5F5F5F5F5F5F5F5F5F5F5F5F5F5F5F5F5F5F5F5F5F5F5F5F5F5
310
F5F5F5F5F5F5F5F5F5F5F5F5F5E2F5F5F5F5F5E200E2F5F5F5F5F5E2F5F5F5F5F5F5F5F5F5F5F5F5F5F5F5F5F5F5F5F5F5F5F5F5F5F5F5F5F5F5F5F5F5F5F5F5F5F5F5F5F5F5F5F5F5F5F5F5F5F5F5F5F5F5F5F5F5F5F5F5F5F5F5F5F5F5F5F5F5F5F5F5F5F5F5F5F5F5F5F5F5F5F5F5F5E2F5F5F5F5F5E200E2E2F5F5F5F5
310
E2F5F5F5F5F5F5F5F5F5F5F5F5F5F5F5F5F5F5F5F5F5F5F5F5F5F5F5F5F5F5F5F5F5F5F5F5F5F5F5F5F5F5F5F5F5F5F5F5F5F5F5F5F5F5F5F5F5F5F5F5F5F5F5F5F5F5F5F5F5F5F5F5F5F5F5F5F5F5F5F5F5F5F5F5F5E2F5F5F5F5E2E202E2E2F5F5F5F5E2F5F5F5F5F5F5F5F5F5F5F5F5F5F5F5F5F5F5F5F5F5F5F5F5F5F5
310
F5F5F5F5F5F5F5F5F5F5F5F5F5F5F5F5F5F5F5F5F5F5F5F5F5F5F5F5F5F5F5F5F5F5F5F5F5F5F5F5F5F5F5F5F5F5F5F5F5F5F5F5F5F5F5F5F5F5F5E2F5F5F5F5E2E233E2E2F5F5F5F5E2F5F5F5F5F5F5F5F5F5F5F5F5F5F5F5F5F5F5F5F5F5F5F5F5F5F5F5F5F5F5F5F5F5F5F5F5F5F5F5F5F5F5F5F5F5F5F5F5F5F5F5F5F5
310
F5F5F5F5F5F5F5F5F5F5F5F5F5F5F5F5F5F5F5F5F5F5F5F5F5F5F5F5F5F5F5F5E2F5F5F5F5E2E200E2E2F5F5F5F5E2E2E2E2E2E2E2E2E2E2E2E2E2E2E2E2E2E2E2E2E2E2E2E2E2E2E2E2E2E2E2E2E2E2E2E2E2E2E2E2E2E2E2E2E2E2E2E2E2E2E2E2E2E2E2E2E2E2E2E2E2E2E2E2E2E2E2E2E2E2E2E2E2E2E2E2E2E2E2E2E2
310
E2E2E2E2E2E2F5F5F5F5E2E200E2E2F5F5F5F5F5F5F5F5F5F5F5F5F5F5F5F5F5F5F5F5F5F5F5F5F5F5F5F5F5F5F5F5F5F5F5F5F5F5F5F5F5F5F5F5F5F5F5F5F5F5F5F5F5F5F5F5F5F5F5F5F5F5F5F5F5F5F5F5F5F5F5F5F5F5F5F5F5F5F5F5F5F5F5F5F5F5F5F5F5F5F5F5F5F5F5E2E202E2E2F5F5F5F5F5F5F5F5F5F5F5F5
310
F5F5F5F5F5F5F5F5F5F5F5F5F5F5F5F5F5F5F5F5F5F5F5F5F5F5F5F5F5F5F5F5F5F5F5F5F5F5F5F5F5F5F5F5F5F5F5F5F5F5F5F5F5F5F5F5F5F5F5F5F5F5F5F5F5F5F5F5F5F5F5F5F5F5F5F5F5F5F5F5F5F5F5E2E200E2E2F5F5F5F5F5F5F5F5F5F5F5F5F5F5F5F5F5F5F5F5F5F5F5F5F5F5F5F5F5F5F5F5F5F5F5F5F5F5F5
310
F5F5F5F5F5F5F5F5F5F5F5F5F5F5F5F5F5F5F5F5F5F5F5F5F5F5F5F5F5F5F5F5F5F5F5F5F5F5F5F5F5F5F5F5F5F5F5F5F5F5F5F5F5F5F5F5E2E201E2E2F5F5F5F5F5F5F5F5F5F5F5F5F5F5F5F5F5F5F5F5F5F5F5F5F5F5F5F5F5F5F5F5F5F5F5F5F5F5F5F5F5F5F5F5F5F5F5F5F5F5F5F5F5F5F5F5F5F5F5F5F5F5F5F5F5F5
310
F5F5F5F5F5F5F5F5F5F5F5F5F5F5F5F5F5F5F5F5F5F5F5F5F5F5F5F5F5E2E200E2E2E2E2E2E2E2E2E2F5F5F5F5F5F5F5F5F5E2E2E2E2E2E2E2E2E2E2E2E2E2E2E2F5F5F5F5F5F5F5F5F5E2E2E2E2E2E2E2E2E2E2E2E2E2E2E2F5F5F5F5F5F5F5F5F5E2E2E2E2E2E2E2E2E2E2E2E2E2E2E2F5F5F5F5F5F5F5F5F5E2E2E2E2E2
310
E2E2E2E200E2F5F5F5F5F5F5F5F5F5F5F5F5F5F5F5F5F5F5F5F5F5F5F5F5F5F5F5F5F5F5F5F5F5F5F5F5F5F5F5F5F5F5F5F5F5F5F5F5F5F5F5F5F5F5F5F5F5F5F5F5F5F5F5F5F5F5F5F5F5F5F5F5F5F5F5F5F5F5F5F5F5F5F5F5F5F5F5F5F5F5F5F5F5F5F5F5F5E200E2E2E2E2E2E2E2E2E2E2E2E2E2E2E2E2E2E2E2E2E2E2
310
E2E2E2E2E2E2E2E2E2E2E2E2E2E2E2E2E2E2E2E2E2E2E2E2E2E2E2E2E2E2E2E2E2E2E2E2E2E2E2E2E2E2E2E2E2E2E2E2E2E2E2E2E2E2E2E2E2E2E2E2E2E2E2E2E2E2E2E2E2E2E2E2E2E2E2E2E200
  0
XRECORD
  5
B44
102
{ACAD_REACTORS
330
B43
102
}
330
B43
100
AcDbXrecord
280
     1
102
SHADEPLOT
 70
     0
102
SHADEPLOTRESLEVEL
 70
     2
102
SHADEPLOTCUSTOMDPI
 70
   300
  0
ENDSEC
  0
EOF
