  0
SECTION
  2
HEADER
  9
$ACADVER
  1
AC1015
  9
$ACADMAINTVER
 70
    20
  9
$DWGCODEPAGE
  3
ANSI_1252
  9
$INSBASE
 10
0.0
 20
0.0
 30
0.0
  9
$EXTMIN
 10
136.9338326464162
 20
89.57823305277271
 30
0.0
  9
$EXTMAX
 10
481.5788667692444
 20
517.7903141934236
 30
0.0
  9
$LIMMIN
 10
0.0
 20
0.0
  9
$LIMMAX
 10
420.0
 20
297.0
  9
$ORTHOMODE
 70
     0
  9
$REGENMODE
 70
     1
  9
$FILLMODE
 70
     1
  9
$QTEXTMODE
 70
     0
  9
$MIRRTEXT
 70
     0
  9
$LTSCALE
 40
1.0
  9
$ATTMODE
 70
     1
  9
$TEXTSIZE
 40
2.5
  9
$TRACEWID
 40
1.0
  9
$TEXTSTYLE
  7
Compan
  9
$CLAYER
  8
0.20
  9
$CELTYPE
  6
ByLayer
  9
$CECOLOR
 62
   256
  9
$CELTSCALE
 40
1.0
  9
$DISPSILH
 70
     0
  9
$DIMSCALE
 40
1.0
  9
$DIMASZ
 40
2.5
  9
$DIMEXO
 40
0.625
  9
$DIMDLI
 40
3.75
  9
$DIMRND
 40
0.0
  9
$DIMDLE
 40
0.0
  9
$DIMEXE
 40
1.25
  9
$DIMTP
 40
0.0
  9
$DIMTM
 40
0.0
  9
$DIMTXT
 40
2.5
  9
$DIMCEN
 40
2.5
  9
$DIMTSZ
 40
0.0
  9
$DIMTOL
 70
     0
  9
$DIMLIM
 70
     0
  9
$DIMTIH
 70
     0
  9
$DIMTOH
 70
     0
  9
$DIMSE1
 70
     0
  9
$DIMSE2
 70
     0
  9
$DIMTAD
 70
     1
  9
$DIMZIN
 70
     8
  9
$DIMBLK
  1

  9
$DIMASO
 70
     1
  9
$DIMSHO
 70
     1
  9
$DIMPOST
  1

  9
$DIMAPOST
  1

  9
$DIMALT
 70
     0
  9
$DIMALTD
 70
     3
  9
$DIMALTF
 40
0.03937007874016
  9
$DIMLFAC
 40
1.0
  9
$DIMTOFL
 70
     1
  9
$DIMTVP
 40
0.0
  9
$DIMTIX
 70
     0
  9
$DIMSOXD
 70
     0
  9
$DIMSAH
 70
     0
  9
$DIMBLK1
  1

  9
$DIMBLK2
  1

  9
$DIMSTYLE
  2
ISO-25
  9
$DIMCLRD
 70
     0
  9
$DIMCLRE
 70
     0
  9
$DIMCLRT
 70
     0
  9
$DIMTFAC
 40
1.0
  9
$DIMGAP
 40
0.625
  9
$DIMJUST
 70
     0
  9
$DIMSD1
 70
     0
  9
$DIMSD2
 70
     0
  9
$DIMTOLJ
 70
     0
  9
$DIMTZIN
 70
     8
  9
$DIMALTZ
 70
     0
  9
$DIMALTTZ
 70
     0
  9
$DIMUPT
 70
     0
  9
$DIMDEC
 70
     2
  9
$DIMTDEC
 70
     2
  9
$DIMALTU
 70
     2
  9
$DIMALTTD
 70
     3
  9
$DIMTXSTY
  7
Standard
  9
$DIMAUNIT
 70
     0
  9
$DIMADEC
 70
     0
  9
$DIMALTRND
 40
0.0
  9
$DIMAZIN
 70
     0
  9
$DIMDSEP
 70
    44
  9
$DIMATFIT
 70
     3
  9
$DIMFRAC
 70
     0
  9
$DIMLDRBLK
  1

  9
$DIMLUNIT
 70
     2
  9
$DIMLWD
 70
    -2
  9
$DIMLWE
 70
    -2
  9
$DIMTMOVE
 70
     0
  9
$LUNITS
 70
     2
  9
$LUPREC
 70
     4
  9
$SKETCHINC
 40
1.0
  9
$FILLETRAD
 40
0.0
  9
$AUNITS
 70
     0
  9
$AUPREC
 70
     0
  9
$MENU
  1
.
  9
$ELEVATION
 40
0.0
  9
$PELEVATION
 40
0.0
  9
$THICKNESS
 40
0.0
  9
$LIMCHECK
 70
     0
  9
$CHAMFERA
 40
0.0
  9
$CHAMFERB
 40
0.0
  9
$CHAMFERC
 40
0.0
  9
$CHAMFERD
 40
0.0
  9
$SKPOLY
 70
     0
  9
$TDCREATE
 40
2454141.536046910
  9
$TDUCREATE
 40
2454140.994380243
  9
$TDUPDATE
 40
2456348.407501447
  9
$TDUUPDATE
 40
2456347.865834780
  9
$TDINDWG
 40
0.0869956019
  9
$TDUSRTIMER
 40
0.0869956019
  9
$USRTIMER
 70
     1
  9
$ANGBASE
 50
0.0
  9
$ANGDIR
 70
     0
  9
$PDMODE
 70
     0
  9
$PDSIZE
 40
0.0
  9
$PLINEWID
 40
0.0
  9
$SPLFRAME
 70
     0
  9
$SPLINETYPE
 70
     6
  9
$SPLINESEGS
 70
     8
  9
$HANDSEED
  5
62F
  9
$SURFTAB1
 70
     6
  9
$SURFTAB2
 70
     6
  9
$SURFTYPE
 70
     6
  9
$SURFU
 70
     6
  9
$SURFV
 70
     6
  9
$UCSBASE
  2

  9
$UCSNAME
  2

  9
$UCSORG
 10
0.0
 20
0.0
 30
0.0
  9
$UCSXDIR
 10
1.0
 20
0.0
 30
0.0
  9
$UCSYDIR
 10
0.0
 20
1.0
 30
0.0
  9
$UCSORTHOREF
  2

  9
$UCSORTHOVIEW
 70
     0
  9
$UCSORGTOP
 10
0.0
 20
0.0
 30
0.0
  9
$UCSORGBOTTOM
 10
0.0
 20
0.0
 30
0.0
  9
$UCSORGLEFT
 10
0.0
 20
0.0
 30
0.0
  9
$UCSORGRIGHT
 10
0.0
 20
0.0
 30
0.0
  9
$UCSORGFRONT
 10
0.0
 20
0.0
 30
0.0
  9
$UCSORGBACK
 10
0.0
 20
0.0
 30
0.0
  9
$PUCSBASE
  2

  9
$PUCSNAME
  2

  9
$PUCSORG
 10
0.0
 20
0.0
 30
0.0
  9
$PUCSXDIR
 10
1.0
 20
0.0
 30
0.0
  9
$PUCSYDIR
 10
0.0
 20
1.0
 30
0.0
  9
$PUCSORTHOREF
  2

  9
$PUCSORTHOVIEW
 70
     0
  9
$PUCSORGTOP
 10
0.0
 20
0.0
 30
0.0
  9
$PUCSORGBOTTOM
 10
0.0
 20
0.0
 30
0.0
  9
$PUCSORGLEFT
 10
0.0
 20
0.0
 30
0.0
  9
$PUCSORGRIGHT
 10
0.0
 20
0.0
 30
0.0
  9
$PUCSORGFRONT
 10
0.0
 20
0.0
 30
0.0
  9
$PUCSORGBACK
 10
0.0
 20
0.0
 30
0.0
  9
$USERI1
 70
     0
  9
$USERI2
 70
     0
  9
$USERI3
 70
     0
  9
$USERI4
 70
     0
  9
$USERI5
 70
     0
  9
$USERR1
 40
0.0
  9
$USERR2
 40
0.0
  9
$USERR3
 40
0.0
  9
$USERR4
 40
0.0
  9
$USERR5
 40
0.0
  9
$WORLDVIEW
 70
     1
  9
$SHADEDGE
 70
     3
  9
$SHADEDIF
 70
    70
  9
$TILEMODE
 70
     0
  9
$MAXACTVP
 70
    64
  9
$PINSBASE
 10
0.0
 20
0.0
 30
0.0
  9
$PLIMCHECK
 70
     0
  9
$PEXTMIN
 10
11.00000095487701
 20
17.52002740592764
 30
0.0
  9
$PEXTMAX
 10
192.7575526067821
 20
286.1806912824301
 30
0.0
  9
$PLIMMIN
 10
2.610320184700066
 20
13.65006810775591
  9
$PLIMMAX
 10
201.4310495445124
 20
295.0387666047036
  9
$UNITMODE
 70
     0
  9
$VISRETAIN
 70
     1
  9
$PLINEGEN
 70
     0
  9
$PSLTSCALE
 70
     1
  9
$TREEDEPTH
 70
  3020
  9
$CMLSTYLE
  2
Standard
  9
$CMLJUST
 70
     0
  9
$CMLSCALE
 40
20.0
  9
$PROXYGRAPHICS
 70
     1
  9
$MEASUREMENT
 70
     1
  9
$CELWEIGHT
370
    -1
  9
$ENDCAPS
280
     0
  9
$JOINSTYLE
280
     0
  9
$LWDISPLAY
290
     0
  9
$INSUNITS
 70
     4
  9
$HYPERLINKBASE
  1

  9
$STYLESHEET
  1

  9
$XEDIT
290
     1
  9
$CEPSNTYPE
380
     0
  9
$PSTYLEMODE
290
     1
  9
$FINGERPRINTGUID
  2
{0F01648F-2CDF-4E3C-8D08-232420A05C74}
  9
$VERSIONGUID
  2
{D2226F5F-056F-4ECA-97E2-31D68C20458F}
  9
$EXTNAMES
290
     1
  9
$PSVPSCALE
 40
0.0
  9
$OLESTARTUP
290
     0
  0
ENDSEC
  0
SECTION
  2
CLASSES
  0
CLASS
  1
ACDBDICTIONARYWDFLT
  2
AcDbDictionaryWithDefault
  3
ObjectDBX Classes
 90
        0
280
     0
281
     0
  0
CLASS
  1
ACDBPLACEHOLDER
  2
AcDbPlaceHolder
  3
ObjectDBX Classes
 90
        0
280
     0
281
     0
  0
CLASS
  1
LAYOUT
  2
AcDbLayout
  3
ObjectDBX Classes
 90
        0
280
     0
281
     0
  0
CLASS
  1
DICTIONARYVAR
  2
AcDbDictionaryVar
  3
ObjectDBX Classes
 90
        0
280
     0
281
     0
  0
CLASS
  1
TABLESTYLE
  2
AcDbTableStyle
  3
ObjectDBX Classes
 90
     2047
280
     0
281
     0
  0
CLASS
  1
SORTENTSTABLE
  2
AcDbSortentsTable
  3
ObjectDBX Classes
 90
        0
280
     0
281
     0
  0
CLASS
  1
FIELD
  2
AcDbField
  3
ObjectDBX Classes
 90
    33920
280
     0
281
     0
  0
CLASS
  1
FIELDLIST
  2
AcDbFieldList
  3
ObjectDBX Classes
 90
     1152
280
     0
281
     0
  0
CLASS
  1
DIMASSOC
  2
AcDbDimAssoc
  3
"AcDbDimAssoc|Product Desc:     AcDim ARX App For Dimension|Company:          Autodesk, Inc.|WEB Address:      www.autodesk.com"
 90
    32768
280
     0
281
     0
  0
CLASS
  1
IMAGEDEF
  2
AcDbRasterImageDef
  3
ISM
 90
        0
280
     0
281
     0
  0
CLASS
  1
IMAGE
  2
AcDbRasterImage
  3
ISM
 90
      127
280
     0
281
     1
  0
CLASS
  1
IMAGEDEF_REACTOR
  2
AcDbRasterImageDefReactor
  3
ISM
 90
        1
280
     0
281
     0
  0
CLASS
  1
RASTERVARIABLES
  2
AcDbRasterVariables
  3
ISM
 90
        0
280
     0
281
     0
  0
ENDSEC
  0
SECTION
  2
TABLES
  0
TABLE
  2
VPORT
  5
8
330
0
100
AcDbSymbolTable
 70
     1
  0
VPORT
  5
5C3
330
8
100
AcDbSymbolTableRecord
100
AcDbViewportTableRecord
  2
*Active
 70
     0
 10
0.0
 20
0.0
 11
1.0
 21
1.0
 12
297.3520287086036
 22
246.753559124167
 13
0.0
 23
0.0
 14
10.0
 24
10.0
 15
10.0
 25
10.0
 16
0.0
 26
0.0
 36
1.0
 17
0.0
 27
0.0
 37
0.0
 40
64.76358554605917
 41
1.769980506822611
 42
50.0
 43
0.0
 44
0.0
 50
0.0
 51
0.0
 71
     0
 72
  1000
 73
     1
 74
     3
 75
     0
 76
     0
 77
     0
 78
     0
281
     0
 65
     1
110
0.0
120
0.0
130
0.0
111
1.0
121
0.0
131
0.0
112
0.0
122
1.0
132
0.0
 79
     0
146
0.0
  0
ENDTAB
  0
TABLE
  2
LTYPE
  5
5
330
0
100
AcDbSymbolTable
 70
     3
  0
LTYPE
  5
14
330
5
100
AcDbSymbolTableRecord
100
AcDbLinetypeTableRecord
  2
ByBlock
 70
     0
  3

 72
    65
 73
     0
 40
0.0
  0
LTYPE
  5
15
330
5
100
AcDbSymbolTableRecord
100
AcDbLinetypeTableRecord
  2
ByLayer
 70
     0
  3

 72
    65
 73
     0
 40
0.0
  0
LTYPE
  5
16
330
5
100
AcDbSymbolTableRecord
100
AcDbLinetypeTableRecord
  2
Continuous
 70
     0
  3
Solid line
 72
    65
 73
     0
 40
0.0
  0
LTYPE
  5
114
330
5
100
AcDbSymbolTableRecord
100
AcDbLinetypeTableRecord
  2
DASHED
 70
     0
  3
Dashed __ __ __ __ __ __ __ __ __ __ __ __ __ _
 72
    65
 73
     2
 40
19.05
 49
12.7
 74
     0
 49
-6.349999999999999
 74
     0
  0
LTYPE
  5
1D6
330
5
100
AcDbSymbolTableRecord
100
AcDbLinetypeTableRecord
  2
DASHED2
 70
     0
  3
Dashed (.5x) _ _ _ _ _ _ _ _ _ _ _ _ _ _ _ _ _
 72
    65
 73
     2
 40
9.524999999999998
 49
6.349999999999999
 74
     0
 49
-3.174999999999999
 74
     0
  0
ENDTAB
  0
TABLE
  2
LAYER
  5
2
102
{ACAD_XDICTIONARY
360
10F
102
}
330
0
100
AcDbSymbolTable
 70
    15
  0
LAYER
  5
10
330
2
100
AcDbSymbolTableRecord
100
AcDbLayerTableRecord
  2
0
 70
     0
 62
     7
  6
Continuous
370
    -3
390
F
  0
LAYER
  5
103
330
2
100
AcDbSymbolTableRecord
100
AcDbLayerTableRecord
  2
0.05
 70
     0
 62
     7
  6
Continuous
370
     5
390
F
1001
AcAecLayerStandard
1000

1000

  0
LAYER
  5
105
330
2
100
AcDbSymbolTableRecord
100
AcDbLayerTableRecord
  2
0.09
 70
     0
 62
     9
  6
Continuous
370
     9
390
F
1001
AcAecLayerStandard
1000

1000

  0
LAYER
  5
106
330
2
100
AcDbSymbolTableRecord
100
AcDbLayerTableRecord
  2
0.13
 70
     0
 62
    30
  6
Continuous
370
    13
390
F
1001
AcAecLayerStandard
1000

1000

  0
LAYER
  5
107
330
2
100
AcDbSymbolTableRecord
100
AcDbLayerTableRecord
  2
0.15
 70
     0
 62
     3
  6
Continuous
370
    15
390
F
1001
AcAecLayerStandard
1000

1000

  0
LAYER
  5
108
330
2
100
AcDbSymbolTableRecord
100
AcDbLayerTableRecord
  2
0.18
 70
     0
 62
     7
  6
Continuous
370
    18
390
F
1001
AcAecLayerStandard
1000

1000

  0
LAYER
  5
109
330
2
100
AcDbSymbolTableRecord
100
AcDbLayerTableRecord
  2
0.20
 70
     0
 62
     7
  6
Continuous
370
    20
390
F
1001
AcAecLayerStandard
1000

1000

  0
LAYER
  5
10B
330
2
100
AcDbSymbolTableRecord
100
AcDbLayerTableRecord
  2
0.30
 70
     0
 62
     5
  6
Continuous
370
    30
390
F
1001
AcAecLayerStandard
1000

1000

  0
LAYER
  5
10C
330
2
100
AcDbSymbolTableRecord
100
AcDbLayerTableRecord
  2
0.40
 70
     0
 62
     7
  6
Continuous
370
    40
390
F
1001
AcAecLayerStandard
1000

1000

  0
LAYER
  5
10D
330
2
100
AcDbSymbolTableRecord
100
AcDbLayerTableRecord
  2
0.50
 70
     0
 62
     7
  6
Continuous
370
    50
390
F
1001
AcAecLayerStandard
1000

1000

  0
LAYER
  5
10E
330
2
100
AcDbSymbolTableRecord
100
AcDbLayerTableRecord
  2
0.09 - dashed
 70
     0
 62
     1
  6
DASHED
370
     9
390
F
1001
AcAecLayerStandard
1000

1000

  0
LAYER
  5
1D7
330
2
100
AcDbSymbolTableRecord
100
AcDbLayerTableRecord
  2
0.15 - dashed Underlay
 70
     0
 62
     3
  6
DASHED2
370
    15
390
F
1001
AcAecLayerStandard
1000

1000

  0
LAYER
  5
1D8
330
2
100
AcDbSymbolTableRecord
100
AcDbLayerTableRecord
  2
Defpoints
 70
     0
 62
     7
  6
Continuous
290
     0
370
    -3
390
F
  0
LAYER
  5
1D9
330
2
100
AcDbSymbolTableRecord
100
AcDbLayerTableRecord
  2
dim
 70
     0
 62
    12
  6
Continuous
370
    13
390
F
1001
AcAecLayerStandard
1000

1000

  0
LAYER
  5
1DA
330
2
100
AcDbSymbolTableRecord
100
AcDbLayerTableRecord
  2
light grey
 70
     0
 62
   253
  6
Continuous
370
    20
390
F
1001
AcAecLayerStandard
1000

1000

  0
ENDTAB
  0
TABLE
  2
STYLE
  5
3
330
0
100
AcDbSymbolTable
 70
     4
  0
STYLE
  5
11
330
3
100
AcDbSymbolTableRecord
100
AcDbTextStyleTableRecord
  2
Standard
 70
     0
 40
0.0
 41
1.0
 50
0.0
 71
     0
 42
2.5
  3
stylu.ttf
  4

1001
ACAD
1000
Stylus BT
1071
       34
  0
STYLE
  5
113
330
3
100
AcDbSymbolTableRecord
100
AcDbTextStyleTableRecord
  2

 70
     1
 40
0.0
 41
1.0
 50
0.0
 71
     0
 42
2.5
  3
ltypeshp.shx
  4

  0
STYLE
  5
17C
330
3
100
AcDbSymbolTableRecord
100
AcDbTextStyleTableRecord
  2
Compan
 70
     0
 40
0.0
 41
1.0
 50
0.0
 71
     0
 42
2.5
  3
TIMESBI.TTF
  4

1001
ACAD
1000
Times New Roman
1071
 50331666
  0
STYLE
  5
1DB
330
3
100
AcDbSymbolTableRecord
100
AcDbTextStyleTableRecord
  2
Rockcote
 70
     0
 40
0.0
 41
1.0
 50
0.0
 71
     0
 42
8.5
  3
stylu.ttf
  4

1001
ACAD
1000
Stylus BT
1071
       34
  0
ENDTAB
  0
TABLE
  2
VIEW
  5
6
330
0
100
AcDbSymbolTable
 70
     0
  0
ENDTAB
  0
TABLE
  2
UCS
  5
7
330
0
100
AcDbSymbolTable
 70
     0
  0
ENDTAB
  0
TABLE
  2
APPID
  5
9
330
0
100
AcDbSymbolTable
 70
     3
  0
APPID
  5
12
330
9
100
AcDbSymbolTableRecord
100
AcDbRegAppTableRecord
  2
ACAD
 70
     0
  0
APPID
  5
9E
330
9
100
AcDbSymbolTableRecord
100
AcDbRegAppTableRecord
  2
ACAD_PSEXT
 70
     0
  0
APPID
  5
104
330
9
100
AcDbSymbolTableRecord
100
AcDbRegAppTableRecord
  2
AcAecLayerStandard
 70
     0
  0
ENDTAB
  0
TABLE
  2
DIMSTYLE
  5
A
330
0
100
AcDbSymbolTable
 70
     2
100
AcDbDimStyleTable
 71
     1
340
27
  0
DIMSTYLE
105
27
102
{ACAD_REACTORS
330
2A9
330
30A
102
}
330
A
100
AcDbSymbolTableRecord
100
AcDbDimStyleTableRecord
  2
ISO-25
 70
     0
 41
2.5
 42
0.625
 43
3.75
 44
1.25
 73
     0
 74
     0
 77
     1
 78
     8
140
2.5
141
2.5
143
0.03937007874016
147
0.625
171
     3
172
     1
271
     2
272
     2
274
     3
278
    44
283
     0
284
     8
340
11
  0
DIMSTYLE
105
1DC
330
A
100
AcDbSymbolTableRecord
100
AcDbDimStyleTableRecord
  2
Rockcote
 70
     0
 41
5.0
 42
0.625
 43
3.75
 44
1.25
 73
     0
 74
     0
 77
     1
 78
     8
140
2.5
141
2.5
143
0.03937007874016
147
0.625
171
     3
172
     1
271
     0
272
     0
274
     3
283
     0
284
     8
340
1DB
  0
ENDTAB
  0
TABLE
  2
BLOCK_RECORD
  5
1
330
0
100
AcDbSymbolTable
 70
     5
  0
BLOCK_RECORD
  5
1F
102
{ACAD_XDICTIONARY
360
34D
102
}
330
1
100
AcDbSymbolTableRecord
100
AcDbBlockTableRecord
  2
*Model_Space
340
22
  0
BLOCK_RECORD
  5
3BE
330
1
100
AcDbSymbolTableRecord
100
AcDbBlockTableRecord
  2
*Paper_Space
340
3BB
  0
BLOCK_RECORD
  5
2D1
330
1
100
AcDbSymbolTableRecord
100
AcDbBlockTableRecord
  2
*D0
340
0
  0
BLOCK_RECORD
  5
30D
330
1
100
AcDbSymbolTableRecord
100
AcDbBlockTableRecord
  2
*D1
340
0
  0
BLOCK_RECORD
  5
3F4
102
{ACAD_XDICTIONARY
360
3F5
102
}
330
1
100
AcDbSymbolTableRecord
100
AcDbBlockTableRecord
  2
shingle
340
0
310
2800000020000000200000000100080000000000000400000000000000000000000000000000000000000000000080000080000000808000800000008000800080800000C0C0C000C0DCC000F0CAA6000020400000206000002080000020A0000020C0000020E00000400000004020000040400000406000004080000040A0
310
000040C0000040E00000600000006020000060400000606000006080000060A0000060C0000060E00000800000008020000080400000806000008080000080A0000080C0000080E00000A0000000A0200000A0400000A0600000A0800000A0A00000A0C00000A0E00000C0000000C0200000C0400000C0600000C0800000C0
310
A00000C0C00000C0E00000E0000000E0200000E0400000E0600000E0800000E0A00000E0C00000E0E00040000000400020004000400040006000400080004000A0004000C0004000E00040200000402020004020400040206000402080004020A0004020C0004020E000404000004040200040404000404060004040800040
310
40A0004040C0004040E00040600000406020004060400040606000406080004060A0004060C0004060E00040800000408020004080400040806000408080004080A0004080C0004080E00040A0000040A0200040A0400040A0600040A0800040A0A00040A0C00040A0E00040C0000040C0200040C0400040C0600040C08000
310
40C0A00040C0C00040C0E00040E0000040E0200040E0400040E0600040E0800040E0A00040E0C00040E0E00080000000800020008000400080006000800080008000A0008000C0008000E00080200000802020008020400080206000802080008020A0008020C0008020E00080400000804020008040400080406000804080
310
008040A0008040C0008040E00080600000806020008060400080606000806080008060A0008060C0008060E00080800000808020008080400080806000808080008080A0008080C0008080E00080A0000080A0200080A0400080A0600080A0800080A0A00080A0C00080A0E00080C0000080C0200080C0400080C0600080C0
310
800080C0A00080C0C00080C0E00080E0000080E0200080E0400080E0600080E0800080E0A00080E0C00080E0E000C0000000C0002000C0004000C0006000C0008000C000A000C000C000C000E000C0200000C0202000C0204000C0206000C0208000C020A000C020C000C020E000C0400000C0402000C0404000C0406000C0
310
408000C040A000C040C000C040E000C0600000C0602000C0604000C0606000C0608000C060A000C060C000C060E000C0800000C0802000C0804000C0806000C0808000C080A000C080C000C080E000C0A00000C0A02000C0A04000C0A06000C0A08000C0A0A000C0A0C000C0A0E000C0C00000C0C02000C0C04000C0C06000
310
C0C08000C0C0A000F0FBFF00A4A0A000808080000000FF0000FF000000FFFF00FF000000FF00FF00FFFF0000FFFFFF0000000000000000000000000000000000000000000000000000000000000000000000000000000000000000000000000000000000000000000000000000000000000000000000000000000000000000
310
00000000000000000000000000000000000000000000000000000000000000000000000000000000000000000000000000000000000000000000000000000000000000000000000000000000000000000000000000000000000000000000000000000000000000000000000000000000000000000000000000000000000000
310
00000000000000000000000000000000000000000000000000000000000000000000000000000000000000000000000000000000000000000000000000000000000000000000000000000000000000000000000000000000000000000000000000000000000000000000000000000000000000000000000000000000000000
310
00000000000000000000000000000000000000000000000000000000000000000000000000000000000000000000000000000000000000000000000000000000000000000000000000000000000000000000000000000000000000000000000000000000000000000000000000000000000000000000000000000000000000
310
0000000000000000000000000000000000000000000000000000000000000000000000FFFFFFFFFFFFFFFFFFFFFFFFFFFFFFFF0000FFFFFFFFFFFFFFFFFFFFFFFFFFFFFFFF00000000000000000000000000000000000000000000000000000000000000000000000000000000000000000000000000000000000000000000
310
00000000000000000000000000000000000000000000000000000000000000000000000000000000000000000000000000000000000000000000000000000000000000000000000000000000000000000000000000000000000000000000000000000000000000000000000000000000000000000000000000000000000000
310
00000000000000000000000000000000000000000000000000000000000000000000000000000000000000000000000000000000000000000000000000000000000000000000000000000000000000000000000000000000000000000000000000000000000000000000000000000000000000000000000000000000000000
310
00000000000000000000000000000000000000000000000000000000000000000000000000000000000000000000000000000000000000000000000000000000000000000000000000000000000000000000000000000000000000000000000000000000000000000000000000000000000000000000000000000000000000
310
0000000000000000000000000000000000000000000000000000000000000000000000000000000000000000000000000000000000000000
1001
ACAD
1000
DesignCenter Data
1002
{
1070
     1
1070
     4
1002
}
  0
BLOCK_RECORD
  5
404
102
{ACAD_XDICTIONARY
360
405
102
}
330
1
100
AcDbSymbolTableRecord
100
AcDbBlockTableRecord
  2
cap shingle
340
0
310
2800000020000000200000000100080000000000000400000000000000000000000000000000000000000000000080000080000000808000800000008000800080800000C0C0C000C0DCC000F0CAA6000020400000206000002080000020A0000020C0000020E00000400000004020000040400000406000004080000040A0
310
000040C0000040E00000600000006020000060400000606000006080000060A0000060C0000060E00000800000008020000080400000806000008080000080A0000080C0000080E00000A0000000A0200000A0400000A0600000A0800000A0A00000A0C00000A0E00000C0000000C0200000C0400000C0600000C0800000C0
310
A00000C0C00000C0E00000E0000000E0200000E0400000E0600000E0800000E0A00000E0C00000E0E00040000000400020004000400040006000400080004000A0004000C0004000E00040200000402020004020400040206000402080004020A0004020C0004020E000404000004040200040404000404060004040800040
310
40A0004040C0004040E00040600000406020004060400040606000406080004060A0004060C0004060E00040800000408020004080400040806000408080004080A0004080C0004080E00040A0000040A0200040A0400040A0600040A0800040A0A00040A0C00040A0E00040C0000040C0200040C0400040C0600040C08000
310
40C0A00040C0C00040C0E00040E0000040E0200040E0400040E0600040E0800040E0A00040E0C00040E0E00080000000800020008000400080006000800080008000A0008000C0008000E00080200000802020008020400080206000802080008020A0008020C0008020E00080400000804020008040400080406000804080
310
008040A0008040C0008040E00080600000806020008060400080606000806080008060A0008060C0008060E00080800000808020008080400080806000808080008080A0008080C0008080E00080A0000080A0200080A0400080A0600080A0800080A0A00080A0C00080A0E00080C0000080C0200080C0400080C0600080C0
310
800080C0A00080C0C00080C0E00080E0000080E0200080E0400080E0600080E0800080E0A00080E0C00080E0E000C0000000C0002000C0004000C0006000C0008000C000A000C000C000C000E000C0200000C0202000C0204000C0206000C0208000C020A000C020C000C020E000C0400000C0402000C0404000C0406000C0
310
408000C040A000C040C000C040E000C0600000C0602000C0604000C0606000C0608000C060A000C060C000C060E000C0800000C0802000C0804000C0806000C0808000C080A000C080C000C080E000C0A00000C0A02000C0A04000C0A06000C0A08000C0A0A000C0A0C000C0A0E000C0C00000C0C02000C0C04000C0C06000
310
C0C08000C0C0A000F0FBFF00A4A0A000808080000000FF0000FF000000FFFF00FF000000FF00FF00FFFF0000FFFFFF0000000000000000000000000000000000000000000000000000000000000000000000000000000000000000000000000000000000000000000000000000000000000000000000000000000000000000
310
00000000000000000000000000000000000000000000000000000000000000000000000000000000000000000000000000000000000000000000000000000000000000000000000000000000000000000000000000000000000000000000000000000000000000000000000000000000000000000000000000000000000000
310
00000000000000000000000000000000000000000000000000000000000000000000000000000000000000000000000000000000000000000000000000000000000000000000000000000000000000000000000000000000000000000000000000000000000000000000000000000000000000000000000000000000000000
310
00000000000000000000000000000000000000000000000000000000000000000000000000000000000000000000000000000000000000000000000000000000000000000000000000000000000000000000000000000000000000000000000000000000000000000000000000000000000000000000000000000000000000
310
0000000000000000000000000000000000000000000000000000000000FFFFFFFFFFFFFFFFFFFFFFFFFFFFFFFFFFFFFFFFFFFF0000FFFFFFFFFFFFFFFFFFFFFFFFFFFFFFFF00000000000000000000000000000000000000000000000000000000000000000000000000000000000000000000000000000000000000000000
310
00000000000000000000000000000000000000000000000000000000000000000000000000000000000000000000000000000000000000000000000000000000000000000000000000000000000000000000000000000000000000000000000000000000000000000000000000000000000000000000000000000000000000
310
00000000000000000000000000000000000000000000000000000000000000000000000000000000000000000000000000000000000000000000000000000000000000000000000000000000000000000000000000000000000000000000000000000000000000000000000000000000000000000000000000000000000000
310
00000000000000000000000000000000000000000000000000000000000000000000000000000000000000000000000000000000000000000000000000000000000000000000000000000000000000000000000000000000000000000000000000000000000000000000000000000000000000000000000000000000000000
310
0000000000000000000000000000000000000000000000000000000000000000000000000000000000000000000000000000000000000000
102
{BLKREFS
331
41C
102
}
1001
ACAD
1000
DesignCenter Data
1002
{
1070
     1
1070
     4
1002
}
  0
BLOCK_RECORD
  5
503
102
{ACAD_XDICTIONARY
360
506
102
}
330
1
100
AcDbSymbolTableRecord
100
AcDbBlockTableRecord
  2
A$C679242BC
340
0
  0
ENDTAB
  0
ENDSEC
  0
SECTION
  2
BLOCKS
  0
BLOCK
  5
20
330
1F
100
AcDbEntity
  8
0
100
AcDbBlockBegin
  2
*Model_Space
 70
     0
 10
0.0
 20
0.0
 30
0.0
  3
*Model_Space
  1

  0
ENDBLK
  5
21
330
1F
100
AcDbEntity
  8
0
100
AcDbBlockEnd
  0
BLOCK
  5
3E6
330
3BE
100
AcDbEntity
 67
     1
  8
0
100
AcDbBlockBegin
  2
*Paper_Space
 70
     0
 10
0.0
 20
0.0
 30
0.0
  3
*Paper_Space
  1

  0
ENDBLK
  5
3E7
330
3BE
100
AcDbEntity
 67
     1
  8
0
100
AcDbBlockEnd
  0
BLOCK
  5
2DB
330
2D1
100
AcDbEntity
  8
0
100
AcDbBlockBegin
  2
*D0
 70
     1
 10
0.0
 20
0.0
 30
0.0
  3
*D0
  1

  0
LINE
  5
2DD
330
2D1
100
AcDbEntity
  8
dim
 62
     0
370
    -2
100
AcDbLine
 10
263.6502120185233
 20
350.3518736998892
 30
0.0
 11
206.9029441404219
 21
350.3518736998892
 31
0.0
  0
LINE
  5
2DE
330
2D1
100
AcDbEntity
  8
dim
 62
     0
370
    -2
100
AcDbLine
 10
263.6502120185233
 20
498.0686168567922
 30
0.0
 11
206.9029441404219
 21
498.0686168567922
 31
0.0
  0
LINE
  5
2DF
330
2D1
100
AcDbEntity
  8
dim
 62
     0
370
    -2
100
AcDbLine
 10
208.1529441404219
 20
355.3518736998892
 30
0.0
 11
208.1529441404219
 21
493.0686168567922
 31
0.0
  0
SOLID
  5
2E0
330
2D1
100
AcDbEntity
  8
dim
 62
     0
100
AcDbTrace
 10
207.3196108070885
 20
355.3518736998892
 30
0.0
 11
208.9862774737552
 21
355.3518736998892
 31
0.0
 12
208.1529441404219
 22
350.3518736998892
 32
0.0
 13
208.1529441404219
 23
350.3518736998892
 33
0.0
  0
SOLID
  5
2E1
330
2D1
100
AcDbEntity
  8
dim
 62
     0
100
AcDbTrace
 10
207.3196108070886
 20
493.0686168567922
 30
0.0
 11
208.9862774737552
 21
493.0686168567922
 31
0.0
 12
208.1529441404219
 22
498.0686168567922
 32
0.0
 13
208.1529441404219
 23
498.0686168567922
 33
0.0
  0
MTEXT
  5
2E2
330
2D1
100
AcDbEntity
  8
dim
 62
     0
100
AcDbMText
 10
204.8398035840529
 20
424.1967033688483
 30
0.0
 40
2.5
 41
0.0
 71
     5
 72
     1
  1
150mm minimum
 11
0.0000000000000001
 21
1.0
 31
0.0
 73
     1
 44
1.0
1001
ACAD
1000
MTEXTBEGIN
1070
    73
1070
     1
1070
    44
1040
1.0
1070
    74
1070
     0
1000
MTEXTEND
  0
POINT
  5
2E3
330
2D1
100
AcDbEntity
  8
Defpoints
 62
     0
100
AcDbPoint
 10
264.2752120185232
 20
350.3518736998892
 30
0.0
  0
POINT
  5
2E4
330
2D1
100
AcDbEntity
  8
Defpoints
 62
     0
100
AcDbPoint
 10
264.2752120185232
 20
498.0686168567922
 30
0.0
  0
POINT
  5
2E5
330
2D1
100
AcDbEntity
  8
Defpoints
 62
     0
100
AcDbPoint
 10
208.1529441404219
 20
498.0686168567922
 30
0.0
  0
ENDBLK
  5
2DC
330
2D1
100
AcDbEntity
  8
0
100
AcDbBlockEnd
  0
BLOCK
  5
317
330
30D
100
AcDbEntity
  8
0
100
AcDbBlockBegin
  2
*D1
 70
     1
 10
0.0
 20
0.0
 30
0.0
  3
*D1
  1

  0
LINE
  5
32B
330
30D
100
AcDbEntity
  8
dim
 62
     0
370
    -2
100
AcDbLine
 10
265.0614494289363
 20
263.39804758935
 30
0.0
 11
262.1459120439037
 21
255.3876744583651
 31
0.0
  0
LINE
  5
32C
330
30D
100
AcDbEntity
  8
dim
 62
     0
370
    -2
100
AcDbLine
 10
283.8553018446634
 20
256.5576447228608
 30
0.0
 11
280.9397644596309
 21
248.5472715918759
 31
0.0
  0
LINE
  5
32D
330
30D
100
AcDbEntity
  8
dim
 62
     0
370
    -2
100
AcDbLine
 10
264.9226687750251
 20
255.7072398760369
 30
0.0
 11
279.0180580868205
 21
250.57693772617
 31
0.0
  0
SOLID
  5
32E
330
30D
100
AcDbEntity
  8
dim
 62
     0
100
AcDbTrace
 10
265.065177168077
 20
256.0987784680313
 30
0.0
 11
264.7801603819733
 21
255.3157012840426
 31
0.0
 12
262.5734372230593
 22
256.5622902343481
 32
0.0
 13
262.5734372230593
 23
256.5622902343481
 33
0.0
  0
SOLID
  5
32F
330
30D
100
AcDbEntity
  8
dim
 62
     0
100
AcDbTrace
 10
279.1605664798724
 20
250.9684763181643
 30
0.0
 11
278.8755496937687
 21
250.1853991341756
 31
0.0
 12
281.3672896387864
 22
249.7218873678588
 32
0.0
 13
281.3672896387864
 23
249.7218873678588
 33
0.0
  0
MTEXT
  5
330
330
30D
100
AcDbEntity
  8
dim
 62
     0
100
AcDbMText
 10
272.6269870223346
 20
254.9461472915955
 30
0.0
 40
2.5
 41
0.0
 71
     5
 72
     1
  1
20mm
 11
0.9396926207863479
 21
-0.3420201433244616
 31
0.0
 73
     1
 44
1.0
1001
ACAD
1000
MTEXTBEGIN
1070
    73
1070
     1
1070
    44
1040
1.0
1070
    74
1070
     0
1000
MTEXTEND
  0
POINT
  5
331
330
30D
100
AcDbEntity
  8
Defpoints
 62
     0
100
AcDbPoint
 10
265.2752120185141
 20
263.9853554773415
 30
0.0
  0
POINT
  5
332
330
30D
100
AcDbEntity
  8
Defpoints
 62
     0
100
AcDbPoint
 10
284.0690644342412
 20
257.1449526108522
 30
0.0
  0
POINT
  5
333
330
30D
100
AcDbEntity
  8
Defpoints
 62
     0
100
AcDbPoint
 10
281.3672896387864
 20
249.7218873678588
 30
0.0
  0
ENDBLK
  5
318
330
30D
100
AcDbEntity
  8
0
100
AcDbBlockEnd
  0
BLOCK
  5
3F7
330
3F4
100
AcDbEntity
  8
0
100
AcDbBlockBegin
  2
shingle
 70
     0
 10
0.0
 20
0.0
 30
0.0
  3
shingle
  1

  0
LINE
  5
3F8
330
3F4
100
AcDbEntity
  8
0.13
100
AcDbLine
 10
2207.062436730225
 20
929.8168642686144
 30
0.0
 11
2207.062436730226
 21
931.3168971615478
 31
0.0
  0
LINE
  5
3F9
330
3F4
100
AcDbEntity
  8
0.13
100
AcDbLine
 10
2207.062436730226
 20
931.3168971615478
 30
0.0
 11
2358.062436730225
 21
930.3168971615479
 31
0.0
  0
LINE
  5
3FA
102
{ACAD_REACTORS
330
402
102
}
330
3F4
100
AcDbEntity
  8
0.13
100
AcDbLine
 10
2358.062436730225
 20
930.3168971615479
 30
0.0
 11
2358.062436730225
 21
928.0668971615479
 31
0.0
  0
LINE
  5
3FB
102
{ACAD_REACTORS
330
402
102
}
330
3F4
100
AcDbEntity
  8
0.13
100
AcDbLine
 10
2507.062436730225
 20
928.0668971615478
 30
0.0
 11
2507.062436730226
 21
927.3168971615477
 31
0.0
  0
LINE
  5
3FC
102
{ACAD_REACTORS
330
402
102
}
330
3F4
100
AcDbEntity
  8
0.13
100
AcDbLine
 10
2507.062436730226
 20
927.3168971615477
 30
0.0
 11
2356.062436730225
 21
927.3168971615479
 31
0.0
  0
LINE
  5
3FD
102
{ACAD_REACTORS
330
402
102
}
330
3F4
100
AcDbEntity
  8
0.13
100
AcDbLine
 10
2356.062436730225
 20
927.3168971615479
 30
0.0
 11
2356.062436730225
 21
928.8301093017269
 31
0.0
  0
LINE
  5
3FE
102
{ACAD_REACTORS
330
402
102
}
330
3F4
100
AcDbEntity
  8
0.13
100
AcDbLine
 10
2207.062436730225
 20
929.8168642686144
 30
0.0
 11
2358.05250317322
 21
928.8169300537601
 31
0.0
  0
HATCH
  5
3FF
330
3F4
100
AcDbEntity
  8
light grey
100
AcDbHatch
 10
0.0
 20
0.0
 30
0.0
210
0.0
220
0.0
230
1.0
  2
SOLID
 70
     1
 71
     0
 91
        1
 92
        7
 72
     0
 73
     1
 93
        4
 10
2358.062436730225
 20
930.3168971615479
 10
2207.062436730226
 20
931.3168971615478
 10
2207.062436730225
 20
929.8168642686141
 10
2358.062436730225
 20
928.8168642686143
 97
        0
 75
     0
 76
     1
 47
0.1913470343855104
 98
        1
 10
2270.164505482017
 20
930.0187568677419
  0
HATCH
  5
400
330
3F4
100
AcDbEntity
  8
0.05
100
AcDbHatch
 10
0.0
 20
0.0
 30
0.0
210
0.0
220
0.0
230
1.0
  2
AR-SAND
 70
     0
 71
     0
 91
        1
 92
        7
 72
     0
 73
     1
 93
        4
 10
2358.062436730225
 20
930.3168971615479
 10
2207.062436730226
 20
931.3168971615478
 10
2207.062436730225
 20
929.8168642686141
 10
2358.062436730225
 20
928.8168642686143
 97
        0
 75
     0
 76
     1
 52
0.0
 41
0.05
 77
     0
 78
     4
 53
37.5
 43
2083.441267449319
 44
495.184158424195
 45
-0.0800015647992023
 46
2.447066186646711
 79
     6
 49
0.0
 49
-1.9304
 49
0.0
 49
-2.159
 49
0.0
 49
-2.06375
 53
7.499999999999999
 43
2083.441267449319
 44
495.184158424195
 45
2.247616415690013
 46
3.584125502841771
 79
     6
 49
0.0
 49
-1.0414
 49
0.0
 49
-1.7399
 49
0.0
 49
-0.6667500000000001
 53
327.5
 43
2081.879167449319
 44
495.184158424195
 45
3.95496185120729
 46
0.0071859233927285
 79
     6
 49
0.0
 49
-0.635
 49
0.0
 49
-2.286
 49
0.0
 49
-2.9845
 53
317.5
 43
2081.879167449319
 44
495.184158424195
 45
3.817782262361486
 46
1.114646616286081
 79
     6
 49
0.0
 49
-0.3175
 49
0.0
 49
-1.498599999999999
 49
0.0
 49
-1.7145
 47
0.1913470343855104
 98
        1
 10
2272.846028478551
 20
930.0187568677419
  0
LINE
  5
401
102
{ACAD_REACTORS
330
402
102
}
330
3F4
100
AcDbEntity
  8
0.13
100
AcDbLine
 10
2507.062436730225
 20
928.0668971615478
 30
0.0
 11
2358.062436730225
 21
928.0668971615479
 31
0.0
  0
HATCH
  5
402
330
3F4
100
AcDbEntity
  8
0.05
100
AcDbHatch
 10
0.0
 20
0.0
 30
0.0
210
0.0
220
0.0
230
1.0
  2
SOLID
 70
     1
 71
     1
 91
        1
 92
        7
 72
     0
 73
     1
 93
        6
 10
2507.062436730225
 20
928.0668971615478
 10
2358.062436730225
 20
928.0668971615479
 10
2358.062436730225
 20
928.8168642686143
 10
2356.062436730225
 20
928.830109301727
 10
2356.062436730225
 20
927.3168971615479
 10
2507.062436730226
 20
927.3168971615477
 97
        6
330
401
330
3FA
330
3FE
330
3FD
330
3FC
330
3FB
 75
     0
 76
     1
 47
0.1818980469777868
 98
        1
 10
2415.507870061291
 20
927.4697748740234
  0
ENDBLK
  5
403
330
3F4
100
AcDbEntity
  8
0
100
AcDbBlockEnd
  0
BLOCK
  5
407
330
404
100
AcDbEntity
  8
0
100
AcDbBlockBegin
  2
cap shingle
 70
     0
 10
0.0
 20
0.0
 30
0.0
  3
cap shingle
  1

  0
LINE
  5
408
330
404
100
AcDbEntity
  8
0.13
100
AcDbLine
 10
88.17357366683706
 20
544.6129110027799
 30
0.0
 11
88.17357366683689
 21
546.1129438957132
 31
0.0
  0
LINE
  5
409
330
404
100
AcDbEntity
  8
0.13
100
AcDbLine
 10
88.17357366683689
 20
546.1129438957132
 30
0.0
 11
236.1735736668364
 21
545.1328114453819
 31
0.0
  0
LINE
  5
40A
330
404
100
AcDbEntity
  8
0.13
100
AcDbLine
 10
236.1735736668367
 20
543.6327785524484
 30
0.0
 11
236.1735736668364
 21
545.1328114453819
 31
0.0
  0
LINE
  5
40B
330
404
100
AcDbEntity
  8
0.13
100
AcDbLine
 10
88.17357366683706
 20
544.6129110027799
 30
0.0
 11
236.1735736668367
 21
543.6327785524484
 31
0.0
  0
HATCH
  5
40C
330
404
100
AcDbEntity
  8
light grey
100
AcDbHatch
 10
0.0
 20
0.0
 30
0.0
210
0.0
220
0.0
230
1.0
  2
SOLID
 70
     1
 71
     0
 91
        2
 92
        7
 72
     0
 73
     1
 93
        4
 10
236.1735736668372
 20
543.6327785524485
 10
236.1735736668364
 20
545.1328114453819
 10
144.7699414067165
 20
545.7381335133297
 10
144.368720769638
 20
544.2407577107083
 97
        0
 92
        7
 72
     0
 73
     1
 93
        4
 10
144.3687207696382
 20
544.2407577107082
 10
144.7699414067165
 20
545.73813351333
 10
88.17357366683689
 20
546.1129438957132
 10
88.17357366683706
 20
544.61291100278
 97
        0
 75
     0
 76
     1
 47
0.233641508679934
 98
        2
 10
149.1019230416728
 20
544.681965647702
 10
139.4005508808572
 20
544.620722652913
  0
HATCH
  5
40D
330
404
100
AcDbEntity
  8
0.05
100
AcDbHatch
 10
0.0
 20
0.0
 30
0.0
210
0.0
220
0.0
230
1.0
  2
AR-SAND
 70
     0
 71
     0
 91
        2
 92
        7
 72
     0
 73
     1
 93
        4
 10
144.368720769638
 20
544.2407577107083
 10
144.7699414067165
 20
545.73813351333
 10
88.17357366683689
 20
546.1129438957132
 10
88.17357366683706
 20
544.61291100278
 97
        0
 92
        7
 72
     0
 73
     1
 93
        4
 10
236.1735736668367
 20
543.6327785524484
 10
236.1735736668364
 20
545.1328114453819
 10
144.7699414067165
 20
545.7381335133297
 10
144.368720769638
 20
544.2407577107083
 97
        0
 75
     0
 76
     1
 52
-15.0
 41
0.05
 77
     0
 78
     4
 53
22.50000000000003
 43
-387.8258098942346
 44
328.9806443349104
 45
0.5560717561474809
 46
2.384390356928803
 79
     6
 49
0.0
 49
-1.9304
 49
0.0
 49
-2.159
 49
0.0
 49
-2.06375
 53
352.5
 43
-387.8258098942346
 44
328.9806443349104
 45
3.09867068367935
 46
2.880273453390522
 79
     6
 49
0.0
 49
-1.0414
 49
0.0
 49
-1.7399
 49
0.0
 49
-0.6667500000000001
 53
312.5
 43
-389.3346826274806
 44
329.3849455652651
 45
3.82205964789983
 46
-1.016678380755597
 79
     6
 49
0.0
 49
-0.635
 49
0.0
 49
-2.286
 49
0.0
 49
-2.9845
 53
302.4999999999999
 43
-389.3346826274806
 44
329.3849455652651
 45
3.976186259217188
 46
0.0885511943027053
 79
     6
 49
0.0
 49
-0.3175
 49
0.0
 49
-1.498599999999999
 49
0.0
 49
-1.7145
 47
0.1838087553171885
 98
        2
 10
140.4321896067188
 20
544.8063759725462
 10
147.1757704260322
 20
545.0926610537638
  0
ENDBLK
  5
40E
330
404
100
AcDbEntity
  8
0
100
AcDbBlockEnd
  0
BLOCK
  5
508
330
503
100
AcDbEntity
  8
0
100
AcDbBlockBegin
  2
A$C679242BC
 70
     0
 10
0.0
 20
0.0
 30
0.0
  3
A$C679242BC
  1

  0
IMAGE
  5
504
330
503
100
AcDbEntity
  8
0.05
 62
     7
 92
      140
310
8C00000001000000840000000600000005000000000000847F3C9F3E000000005366513E0000000000000000000000847F3C9F3E6E0809F89ACA2F400000000000000000A0908000BF7F56406E0809F89ACA2F400000000000000000A0908000BF7F5640000000005366513E0000000000000000000000847F3C9F3E000000
310
005366513E0000000000000000
100
AcDbRasterImage
 90
        0
 10
0.0000004654574504
 20
0.0000000162047371
 30
0.0
 11
0.1195166432524857
 21
0.0
 31
0.0
 12
0.0
 22
0.1195166432524857
 32
0.0
 13
753.0
 23
133.0
340
50A
 70
     7
280
     0
281
    50
282
    50
283
     0
360
505
 71
     1
 91
        2
 14
-0.5
 24
-0.5
 14
752.5
 24
132.5
  0
ENDBLK
  5
509
330
503
100
AcDbEntity
  8
0
100
AcDbBlockEnd
  0
ENDSEC
  0
SECTION
  2
ENTITIES
  0
LINE
  5
25A
330
1F
100
AcDbEntity
  8
0.20
100
AcDbLine
 10
174.2752120185266
 20
332.2373254730487
 30
0.0
 11
174.275212018525
 21
512.7903141934259
 31
0.0
  0
LINE
  5
25B
330
1F
100
AcDbEntity
  8
0.20
100
AcDbLine
 10
167.2752120185266
 20
332.2373254730487
 30
0.0
 11
167.275212018525
 21
512.7903141934259
 31
0.0
  0
LINE
  5
25C
330
1F
100
AcDbEntity
  8
0.20
100
AcDbLine
 10
264.2752120185232
 20
89.57823305277271
 30
0.0
 11
264.2752120185232
 21
512.7903141934259
 31
0.0
  0
LINE
  5
25D
330
1F
100
AcDbEntity
  8
0.20
100
AcDbLine
 10
271.2752120185232
 20
118.8148738638238
 30
0.0
 11
271.2752120185251
 21
206.4642899030205
 31
0.0
  0
LINE
  5
25E
330
1F
100
AcDbEntity
  8
0.15 - dashed Underlay
100
AcDbLine
 10
268.8462703624477
 20
407.0267912553878
 30
0.0
 11
268.8462703624477
 21
512.7903141934259
 31
0.0
  0
HATCH
  5
25F
330
1F
100
AcDbEntity
  8
0.30
100
AcDbHatch
 10
0.0
 20
0.0
 30
0.0
210
0.0
220
0.0
230
1.0
  2
SOLID
 70
     1
 71
     1
 91
        1
 92
        7
 72
     0
 73
     1
 93
        6
 10
267.2752120185251
 20
351.0520812380985
 10
267.2752120185214
 20
498.0415330378036
 10
266.2752120185232
 20
498.0415330378036
 10
266.2752120185233
 20
350.3518736998893
 10
380.0513567278212
 20
308.9407436561389
 10
380.3933768711468
 20
309.8804362769267
 97
        6
330
261
330
2A5
330
260
330
29A
330
2A6
330
29B
 75
     0
 76
     1
 47
0.3427294064443306
 98
        1
 10
364.1331466340089
 20
315.4610590600833
  0
LINE
  5
260
102
{ACAD_REACTORS
330
25F
102
}
330
1F
100
AcDbEntity
  8
0.30
100
AcDbLine
 10
266.2752120185232
 20
350.3518736998892
 30
0.0
 11
266.2752120185232
 21
498.0415330378036
 31
0.0
  0
LINE
  5
261
102
{ACAD_REACTORS
330
25F
102
}
330
1F
100
AcDbEntity
  8
0.30
100
AcDbLine
 10
267.2752120185251
 20
351.0520812380985
 30
0.0
 11
267.2752120185214
 21
498.0415330378036
 31
0.0
  0
LWPOLYLINE
  5
265
330
1F
100
AcDbEntity
  8
0.20
100
AcDbPolyline
 90
        4
 70
     1
 43
0.0
 10
264.2752120185214
 20
222.2373254730505
 10
219.2752120185214
 20
222.2373254730505
 10
219.2752120185214
 20
312.2373254730487
 10
264.2752120185214
 20
312.2373254730487
  0
LINE
  5
266
330
1F
100
AcDbEntity
  8
0.13
100
AcDbLine
 10
219.2752120185214
 20
222.2373254730505
 30
0.0
 11
264.2752120185214
 21
312.2373254730487
 31
0.0
  0
LINE
  5
267
330
1F
100
AcDbEntity
  8
0.20
100
AcDbLine
 10
264.2752120185214
 20
312.2373254730487
 30
0.0
 11
452.0840438241302
 21
243.8805009634982
 31
0.0
  0
LINE
  5
268
330
1F
100
AcDbEntity
  8
0.20
100
AcDbLine
 10
289.1993665841292
 20
319.128341684057
 30
0.0
 11
452.0840438241302
 21
259.8431675506358
 31
0.0
  0
LINE
  5
269
330
1F
100
AcDbEntity
  8
0.15 - dashed Underlay
100
AcDbLine
 10
289.5413867274547
 20
320.068034304843
 30
0.0
 11
452.0840438241321
 21
260.9073453231113
 31
0.0
  0
LINE
  5
26A
330
1F
100
AcDbEntity
  8
0.20
100
AcDbLine
 10
264.2752120185232
 20
216.4613259502162
 30
0.0
 11
452.0840438241338
 21
148.1045014406656
 31
0.0
  0
LINE
  5
26B
330
1F
100
AcDbEntity
  8
0.20
100
AcDbLine
 10
264.2752120185178
 20
209.0120815428865
 30
0.0
 11
452.0840438241321
 21
140.6552570333347
 31
0.0
  0
LINE
  5
26C
330
1F
100
AcDbEntity
  8
dim
100
AcDbLine
 10
155.6277015271462
 20
118.8148738638238
 30
0.0
 11
216.3884606725769
 21
118.8148738638235
 31
0.0
  0
LINE
  5
26D
330
1F
100
AcDbEntity
  8
dim
100
AcDbLine
 10
222.1619633644732
 20
118.8148738638235
 30
0.0
 11
282.9227225099003
 21
118.8148738638238
 31
0.0
  0
LINE
  5
26E
330
1F
100
AcDbEntity
  8
dim
100
AcDbLine
 10
155.6277015271462
 20
512.7903141934259
 30
0.0
 11
243.3009881052694
 21
512.7903141934259
 31
0.0
  0
LINE
  5
26F
330
1F
100
AcDbEntity
  8
dim
100
AcDbLine
 10
249.0744907971675
 20
512.7903141934261
 30
0.0
 11
336.7477773752871
 21
512.7903141934259
 31
0.0
  0
LWPOLYLINE
  5
270
330
1F
100
AcDbEntity
  8
0.20
100
AcDbPolyline
 90
        4
 70
     1
 43
0.0
 10
264.275212018516
 20
377.2373254730503
 10
264.275212018516
 20
332.2373254730503
 10
174.2752120185178
 20
332.2373254730503
 10
174.2752120185178
 20
377.2373254730503
  0
LINE
  5
271
330
1F
100
AcDbEntity
  8
0.13
100
AcDbLine
 10
264.275212018516
 20
332.2373254730503
 30
0.0
 11
174.2752120185178
 21
377.2373254730503
 31
0.0
  0
LINE
  5
272
330
1F
100
AcDbEntity
  8
0.13
100
AcDbLine
 10
264.275212018516
 20
377.2373254730503
 30
0.0
 11
174.2752120185178
 21
332.2373254730503
 31
0.0
  0
LINE
  5
273
330
1F
100
AcDbEntity
  8
0.20
100
AcDbLine
 10
219.2752120185214
 20
312.2373254730487
 30
0.0
 11
141.9338326464144
 21
312.2373254730487
 31
0.0
  0
LINE
  5
274
330
1F
100
AcDbEntity
  8
0.20
100
AcDbLine
 10
264.2752120185232
 20
332.2373254730485
 30
0.0
 11
141.9338326464144
 21
332.2373254730487
 31
0.0
  0
LINE
  5
275
330
1F
100
AcDbEntity
  8
0.20
100
AcDbLine
 10
219.2752120185196
 20
222.2373254730505
 30
0.0
 11
141.9338326464126
 21
222.2373254730505
 31
0.0
  0
LINE
  5
276
330
1F
100
AcDbEntity
  8
0.20
100
AcDbLine
 10
174.2752120185196
 20
215.2373254730505
 30
0.0
 11
141.9338326464126
 21
215.2373254730505
 31
0.0
  0
LINE
  5
277
330
1F
100
AcDbEntity
  8
dim
100
AcDbLine
 10
141.9338326464126
 20
205.8857586595989
 30
0.0
 11
141.9338326464126
 21
269.8806130134178
 31
0.0
  0
LINE
  5
278
330
1F
100
AcDbEntity
  8
dim
100
AcDbLine
 10
141.9338326464126
 20
275.6541157053145
 30
0.0
 11
141.9338326464126
 21
339.6489700591346
 31
0.0
  0
LWPOLYLINE
  5
279
330
1F
100
AcDbEntity
  8
0.20
100
AcDbPolyline
 90
        4
 70
     1
 43
0.0
 10
264.2752120185178
 20
222.2373254730505
 10
264.2752120185178
 20
177.2373254730505
 10
174.2752120185196
 20
177.2373254730505
 10
174.2752120185196
 20
222.2373254730505
  0
LINE
  5
27A
330
1F
100
AcDbEntity
  8
0.13
100
AcDbLine
 10
264.2752120185178
 20
177.2373254730505
 30
0.0
 11
174.2752120185196
 21
222.2373254730505
 31
0.0
  0
LINE
  5
27B
330
1F
100
AcDbEntity
  8
0.13
100
AcDbLine
 10
264.2752120185178
 20
222.2373254730505
 30
0.0
 11
174.2752120185196
 21
177.2373254730505
 31
0.0
  0
LINE
  5
27C
330
1F
100
AcDbEntity
  8
0.13
100
AcDbLine
 10
219.2752120185214
 20
312.2373254730487
 30
0.0
 11
264.2752120185178
 21
222.2373254730505
 31
0.0
  0
LINE
  5
27D
330
1F
100
AcDbEntity
  8
0.20
100
AcDbLine
 10
167.2752120185196
 20
215.2373254730505
 30
0.0
 11
167.2752120185196
 21
118.8148738638238
 31
0.0
  0
LINE
  5
27E
330
1F
100
AcDbEntity
  8
dim
100
AcDbLine
 10
452.0840438241321
 20
126.7526737255105
 30
0.0
 11
452.0840438241338
 21
197.582379691471
 31
0.0
  0
LINE
  5
27F
102
{ACAD_REACTORS
330
428
330
429
102
}
330
1F
100
AcDbEntity
  8
dim
100
AcDbLine
 10
452.0840438241321
 20
203.3558823833671
 30
0.0
 11
452.0840438241321
 21
274.1855883493236
 31
0.0
  0
ARC
  5
280
330
1F
100
AcDbEntity
  8
0.13
100
AcDbCircle
 10
264.2432254325122
 20
304.8686645458602
 30
0.0
 40
27.36867961903157
100
AcDbArc
 50
89.93303671122751
 51
164.3811316212471
  0
ARC
  5
281
330
1F
100
AcDbEntity
  8
0.13
100
AcDbCircle
 10
244.2432254325122
 20
304.8686645458599
 30
0.0
 40
27.36867961903157
100
AcDbArc
 50
89.93303671122751
 51
164.3811316212597
  0
ARC
  5
282
330
1F
100
AcDbEntity
  8
0.13
100
AcDbCircle
 10
224.2432254325122
 20
304.8686645458604
 30
0.0
 40
27.36867961903157
100
AcDbArc
 50
89.93303671122751
 51
164.3811316212597
  0
ARC
  5
283
330
1F
100
AcDbEntity
  8
0.13
100
AcDbCircle
 10
204.2432254325122
 20
304.8686645458602
 30
0.0
 40
27.36867961903157
100
AcDbArc
 50
89.93303671122751
 51
164.3811316212597
  0
ARC
  5
284
330
1F
100
AcDbEntity
  8
0.13
100
AcDbCircle
 10
184.2432254325122
 20
304.8686645458599
 30
0.0
 40
27.36867961903157
100
AcDbArc
 50
89.93303671122751
 51
164.3811316212597
  0
ARC
  5
286
330
1F
100
AcDbEntity
  8
0.13
100
AcDbCircle
 10
160.5808328818507
 20
304.8686645458602
 30
0.0
 40
27.36867961903157
100
AcDbArc
 50
89.93303671122751
 51
132.9473691220701
  0
ARC
  5
287
330
1F
100
AcDbEntity
  8
0.13
100
AcDbCircle
 10
284.2432254325122
 20
304.8686645458599
 30
0.0
 40
27.36867961903157
100
AcDbArc
 50
136.8523346883038
 51
164.3811316212471
  0
LINE
  5
288
330
1F
100
AcDbEntity
  8
0.20
100
AcDbLine
 10
284.0690644342503
 20
305.0329523722924
 30
0.0
 11
289.1993665841292
 21
319.128341684057
 31
0.0
  0
ARC
  5
289
330
1F
100
AcDbEntity
  8
0.13
100
AcDbCircle
 10
433.7059013217385
 20
237.4071437614652
 30
0.0
 40
27.36867961903157
100
AcDbArc
 50
70.06696332486462
 51
133.1325776219907
  0
ARC
  5
28A
330
1F
100
AcDbEntity
  8
0.13
100
AcDbCircle
 10
414.9120489060205
 20
244.247546627978
 30
0.0
 40
27.36867961903157
100
AcDbArc
 50
69.93303671125639
 51
133.1325776219907
  0
ARC
  5
28B
330
1F
100
AcDbEntity
  8
0.13
100
AcDbCircle
 10
396.1181964903026
 20
251.0879494944916
 30
0.0
 40
27.36867961903157
100
AcDbArc
 50
69.93303671125639
 51
133.1325776219907
  0
ARC
  5
28C
330
1F
100
AcDbEntity
  8
0.13
100
AcDbCircle
 10
377.3243440745846
 20
257.9283523610052
 30
0.0
 40
27.36867961903157
100
AcDbArc
 50
69.93303671125639
 51
133.1325776219907
  0
ARC
  5
28D
330
1F
100
AcDbEntity
  8
0.13
100
AcDbCircle
 10
358.5304916588648
 20
264.7687552275179
 30
0.0
 40
27.36867961903157
100
AcDbArc
 50
69.93303671125639
 51
133.1325776219907
  0
ARC
  5
28E
330
1F
100
AcDbEntity
  8
0.13
100
AcDbCircle
 10
339.7366392431468
 20
271.6091580940315
 30
0.0
 40
27.36867961903157
100
AcDbArc
 50
69.93303671125639
 51
133.1325776219907
  0
ARC
  5
28F
330
1F
100
AcDbEntity
  8
0.13
100
AcDbCircle
 10
320.9427868274288
 20
278.4495609605451
 30
0.0
 40
27.36867961903157
100
AcDbArc
 50
69.93303671125639
 51
133.1325776219907
  0
ARC
  5
290
330
1F
100
AcDbEntity
  8
0.13
100
AcDbCircle
 10
302.1489344117108
 20
285.2899638270587
 30
0.0
 40
27.36867961903157
100
AcDbArc
 50
69.93303671125639
 51
130.1681082513201
  0
ARC
  5
291
330
1F
100
AcDbEntity
  8
0.13
100
AcDbCircle
 10
452.4997537374566
 20
230.5667408949517
 30
0.0
 40
27.36867961903157
100
AcDbArc
 50
90.87031379792906
 51
133.1325776219907
  0
LWPOLYLINE
  5
292
330
1F
100
AcDbEntity
  8
0.20
100
AcDbPolyline
 90
        4
 70
     1
 43
0.0
 10
299.4599708838959
 20
299.4311205462182
 10
341.7461388192605
 20
284.0402140965625
 10
326.3552323696058
 20
241.7540461611966
 10
284.0690644342412
 20
257.1449526108522
  0
LINE
  5
293
330
1F
100
AcDbEntity
  8
0.13
100
AcDbLine
 10
341.7461388192605
 20
284.0402140965625
 30
0.0
 11
284.0690644342412
 21
257.1449526108522
 31
0.0
  0
HATCH
  5
294
330
1F
100
AcDbEntity
  8
light grey
100
AcDbHatch
 10
0.0
 20
0.0
 30
0.0
210
0.0
220
0.0
230
1.0
  2
SOLID
 70
     1
 71
     1
 91
        4
 92
        7
 72
     0
 73
     1
 93
        4
 10
266.7752120185215
 20
348.5736219240417
 10
266.7752120185233
 20
345.381088606613
 10
373.8138029789261
 20
306.4222275792313
 10
374.8398634089026
 20
309.2413054415895
 97
        4
330
29F
330
298
330
29C
330
299
 92
        7
 72
     0
 73
     1
 93
        4
 10
297.612332886077
 20
330.9647611829266
 10
296.5862724561
 20
328.1456833205693
 10
362.3647559111124
 20
304.2042732877723
 10
363.3908163410888
 20
307.0233511501303
 97
        4
330
29E
330
296
330
29D
330
297
 92
       23
 72
     0
 73
     1
 93
        4
 10
298.6383933160542
 20
333.7838390452844
 10
297.612332886077
 20
330.9647611829266
 10
363.3908163410889
 20
307.0233511501303
 10
364.4168767710655
 20
309.8424290124885
 97
        4
330
29E
330
297
330
29D
330
298
 92
        7
 72
     0
 73
     1
 93
        4
 10
296.5862724561
 20
328.1456833205693
 10
295.5602120261227
 20
325.3266054582115
 10
361.338695481136
 20
301.3851954254146
 10
362.3647559111124
 20
304.2042732877723
 97
        4
330
29E
330
295
330
29D
330
296
 75
     0
 76
     1
 47
0.3799880854965563
 98
        4
 10
332.6331692939166
 20
323.0191323412228
 10
331.1119573823926
 20
318.4592627093925
 10
331.492267705009
 20
320.3592135164809
 10
327.3089422930389
 20
315.4193598758257
  0
LINE
  5
295
102
{ACAD_REACTORS
330
294
102
}
330
1F
100
AcDbEntity
  8
0.15
100
AcDbLine
 10
295.5602120261228
 20
325.3266054582113
 30
0.0
 11
361.3386954811358
 21
301.3851954254146
 31
0.0
  0
LINE
  5
296
102
{ACAD_REACTORS
330
294
102
}
330
1F
100
AcDbEntity
  8
0.15
100
AcDbLine
 10
296.5862724561011
 20
328.1456833205689
 30
0.0
 11
362.3647559111123
 21
304.2042732877724
 31
0.0
  0
LINE
  5
297
102
{ACAD_REACTORS
330
294
102
}
330
1F
100
AcDbEntity
  8
0.15
100
AcDbLine
 10
297.6123328860776
 20
330.9647611829264
 30
0.0
 11
363.3908163410888
 21
307.0233511501303
 31
0.0
  0
LINE
  5
298
102
{ACAD_REACTORS
330
294
102
}
330
1F
100
AcDbEntity
  8
0.15
100
AcDbLine
 10
266.7752120185233
 20
345.381088606613
 30
0.0
 11
373.8138029789261
 21
306.4222275792313
 31
0.0
  0
LINE
  5
299
102
{ACAD_REACTORS
330
294
102
}
330
1F
100
AcDbEntity
  8
0.15
100
AcDbLine
 10
266.7752120185214
 20
348.5736219240416
 30
0.0
 11
374.8398634089026
 21
309.2413054415895
 31
0.0
  0
LINE
  5
29A
102
{ACAD_REACTORS
330
25F
102
}
330
1F
100
AcDbEntity
  8
0.30
100
AcDbLine
 10
266.2752120185232
 20
350.3518736998892
 30
0.0
 11
380.0513567278212
 21
308.9407436561389
 31
0.0
  0
LINE
  5
29B
102
{ACAD_REACTORS
330
25F
102
}
330
1F
100
AcDbEntity
  8
0.30
100
AcDbLine
 10
267.2752120185251
 20
351.0520812380985
 30
0.0
 11
380.3933768711468
 21
309.8804362769267
 31
0.0
  0
LINE
  5
29C
102
{ACAD_REACTORS
330
294
102
}
330
1F
100
AcDbEntity
  8
0.15
100
AcDbLine
 10
374.8398634089026
 20
309.2413054415895
 30
0.0
 11
373.8138029789261
 21
306.4222275792313
 31
0.0
  0
LINE
  5
29D
102
{ACAD_REACTORS
330
294
102
}
330
1F
100
AcDbEntity
  8
0.15
100
AcDbLine
 10
364.4168767710653
 20
309.8424290124881
 30
0.0
 11
361.3386954811358
 21
301.3851954254139
 31
0.0
  0
LINE
  5
29E
102
{ACAD_REACTORS
330
294
102
}
330
1F
100
AcDbEntity
  8
0.15
100
AcDbLine
 10
298.6383933160541
 20
333.7838390452844
 30
0.0
 11
295.560212026121
 21
325.3266054582068
 31
0.0
  0
LINE
  5
29F
102
{ACAD_REACTORS
330
294
102
}
330
1F
100
AcDbEntity
  8
0.15
100
AcDbLine
 10
266.7752120185233
 20
345.381088606613
 30
0.0
 11
266.7752120185214
 21
348.5736219240416
 31
0.0
  0
LINE
  5
2A5
102
{ACAD_REACTORS
330
25F
102
}
330
1F
100
AcDbEntity
  8
0.30
100
AcDbLine
 10
266.2752120185232
 20
498.0415330378036
 30
0.0
 11
267.2752120185214
 21
498.0415330378036
 31
0.0
  0
LINE
  5
2A6
102
{ACAD_REACTORS
330
25F
102
}
330
1F
100
AcDbEntity
  8
0.30
100
AcDbLine
 10
380.0513567278212
 20
308.9407436561389
 30
0.0
 11
380.3933768711468
 21
309.8804362769267
 31
0.0
  0
LWPOLYLINE
  5
2A7
330
1F
100
AcDbEntity
  8
0.20
100
AcDbPolyline
 90
        4
 70
     1
 43
0.0
 10
264.2752120185232
 20
393.0006846620074
 10
219.2752120185232
 20
393.0006846620074
 10
219.2752120185232
 20
483.0006846620055
 10
264.2752120185232
 20
483.0006846620055
  0
LINE
  5
2A8
330
1F
100
AcDbEntity
  8
0.13
100
AcDbLine
 10
264.2752120185232
 20
483.0006846620055
 30
0.0
 11
219.2752120185232
 21
393.0006846620074
 31
0.0
  0
DIMENSION
  5
2A9
330
1F
100
AcDbEntity
  8
dim
100
AcDbDimension
  2
*D0
 10
208.1529441404219
 20
498.0686168567922
 30
0.0
 11
208.1529441404218
 21
424.1967033688483
 31
0.0
 70
   161
  1
150mm minimum
 71
     5
 42
147.716743156903
  3
ISO-25
100
AcDbAlignedDimension
 13
264.2752120185232
 23
350.3518736998892
 33
0.0
 14
264.2752120185232
 24
498.0686168567922
 34
0.0
1001
ACAD
1000
DSTYLE
1002
{
1070
    41
1040
5.0
1070
   147
1040
2.0
1002
}
  0
MTEXT
  5
2AA
102
{ACAD_XDICTIONARY
360
626
102
}
330
1F
100
AcDbEntity
  8
0.20
100
AcDbMText
 10
298.3089954663701
 20
163.9836503403637
 30
0.0
 40
4.0
 41
98.86060606060606
 71
     1
 72
     5
  1
All carpentry works and materials shall be provided by the main contractor.\P\PFor roofing underlay & plywood installations, refer to Installation Guide.
 73
     1
 44
1.0
1001
ACAD
1000
MTEXTBEGIN
1070
    73
1070
     1
1070
    44
1040
1.0
1070
    74
1070
     0
1000
MTEXTEND
  0
ARC
  5
2AB
330
1F
100
AcDbEntity
  8
0
100
AcDbCircle
 10
283.7725854219116
 20
154.9207187484105
 30
0.0
 40
11.10339015422855
100
AcDbArc
 50
105.6736175970558
 51
70.61330301493353
  0
ARC
  5
2AC
330
1F
100
AcDbEntity
  8
0
100
AcDbCircle
 10
283.7725854219116
 20
154.9207187484105
 30
0.0
 40
9.603390154228552
100
AcDbArc
 50
106.5933313325585
 51
69.05604189482343
  0
LINE
  5
2AD
330
1F
100
AcDbEntity
  8
0
100
AcDbLine
 10
282.8836297877097
 20
153.4055676537564
 30
0.0
 11
285.4434905480339
 21
153.4055676537564
 31
0.0
  0
LINE
  5
2AE
330
1F
100
AcDbEntity
  8
0
100
AcDbLine
 10
285.4434905480339
 20
153.4055676537564
 30
0.0
 11
287.45826833514
 21
165.3945439512747
 31
0.0
  0
LINE
  5
2AF
330
1F
100
AcDbEntity
  8
0
100
AcDbLine
 10
282.8836297877097
 20
153.4055676537564
 30
0.0
 11
280.7729253328544
 21
165.6112431633839
 31
0.0
  0
SPLINE
  5
2B0
330
1F
100
AcDbEntity
  8
0
100
AcDbSpline
210
0.0
220
0.0
230
1.0
 70
     8
 71
     3
 72
    14
 73
    10
 74
     8
 42
0.0000000001
 43
0.0000000001
 44
0.0000000001
 40
0.0
 40
0.0
 40
0.0
 40
0.0
 40
1.153360054430621
 40
2.12844844136094
 40
2.891481907336435
 40
5.571474202971991
 40
6.397548371861267
 40
7.165475926971774
 40
8.492053936514528
 40
8.492053936514528
 40
8.492053936514528
 40
8.492053936514528
 10
280.7729253328544
 20
165.6112431633839
 30
0.0
 10
280.9084610583837
 20
165.9757161878074
 30
0.0
 10
281.1585831279348
 20
166.648326651272
 30
0.0
 10
281.9755597510925
 20
167.289931628017
 30
0.0
 10
283.4646473236187
 20
167.3859586072062
 30
0.0
 10
284.900229824597
 20
167.6224117953221
 30
0.0
 10
286.2843278839187
 20
167.1495395542948
 30
0.0
 10
286.9960066607192
 20
166.4470806736363
 30
0.0
 10
287.2790192292234
 20
165.8026813264189
 30
0.0
 10
287.45826833514
 20
165.3945439512747
 30
0.0
 11
280.7729253328544
 21
165.6112431633839
 31
0.0
 11
281.2826744596023
 21
166.6458422369076
 31
0.0
 11
282.0652854331929
 21
167.2274928419463
 31
0.0
 11
282.8184227852598
 21
167.3499844707223
 31
0.0
 11
285.4981865709851
 21
167.3849810045672
 31
0.0
 11
286.268839401233
 21
167.0875036983116
 31
0.0
 11
286.8293121352472
 21
166.5625436576183
 31
0.0
 11
287.45826833514
 21
165.3945439512747
 31
0.0
  0
CIRCLE
  5
2B1
330
1F
100
AcDbEntity
  8
0
100
AcDbCircle
 10
284.0927930096004
 20
149.6790286734324
 30
0.0
 40
2.569476904230562
  0
HATCH
  5
2B2
330
1F
100
AcDbEntity
  8
0
100
AcDbHatch
 10
0.0
 20
0.0
 30
0.0
210
0.0
220
0.0
230
1.0
  2
SOLID
 70
     1
 71
     0
 91
        1
 92
        7
 72
     1
 73
     1
 93
        4
 10
287.45826833514
 20
165.3945439512747
 42
0.0
 10
287.2053616837493
 20
163.8896177661547
 42
-6.050784953660254
 10
281.0300797417603
 20
164.1241835877342
 42
0.0
 10
280.7729253328544
 20
165.6112431633839
 42
6.48575145239653
 97
        0
 75
     0
 76
     1
 47
0.1251288764846155
 98
        1
 10
273.4808872317899
 20
156.7609436271962
  0
MTEXT
  5
2B3
330
1F
100
AcDbEntity
  8
0.20
100
AcDbMText
 10
401.0547086433294
 20
313.2625614684182
 30
0.0
 40
4.0
 41
79.0
 71
     1
 72
     5
  1
Pabco Asphalt Shingle over waterproof underlay on 15mm plywood on timber frame.
 73
     1
 44
1.0
1001
ACAD
1000
MTEXTBEGIN
1070
    73
1070
     1
1070
    44
1040
1.0
1070
    74
1070
     0
1000
MTEXTEND
  0
LEADER
  5
2B4
330
1F
100
AcDbEntity
  8
dim
100
AcDbLeader
  3
ISO-25
 76
     3
 10
369.9452280445511
 20
316.5023606629488
 30
0.0
 10
376.5416520841323
 20
326.5571797589907
 30
0.0
 10
396.8375609905347
 20
326.5571797589907
 30
0.0
1001
ACAD
1000
DSTYLE
1002
{
1070
    41
1040
5.0
1002
}
  0
MTEXT
  5
2B5
330
1F
100
AcDbEntity
  8
0.20
100
AcDbMText
 10
343.4277215259008
 20
235.0088491533029
 30
0.0
 40
4.0
 41
79.0
 71
     1
 72
     5
  1
ROOF FRAME
 11
0.9396926207859085
 21
-0.3420201433256686
 31
0.0
 73
     1
 44
1.0
1001
ACAD
1000
MTEXTBEGIN
1070
    73
1070
     1
1070
    44
1040
1.0
1070
    74
1070
     0
1000
MTEXTEND
  0
LEADER
  5
2B6
330
1F
100
AcDbEntity
  8
dim
100
AcDbLeader
  3
Rockcote
 76
     2
 10
294.4808749816693
 20
407.0608524489215
 30
0.0
 10
292.731724020581
 20
389.6941952801692
 30
0.0
211
-1.0
221
0.0000000000000001
231
0.0
  0
MTEXT
  5
2B7
330
1F
100
AcDbEntity
  8
0.20
100
AcDbMText
 10
401.5628516086419
 20
393.0339980410285
 30
0.0
 40
4.0
 41
79.0
 71
     1
 72
     5
  1
All cladding clearances shall be according to the manufacturers' specifications.
 73
     1
 44
1.0
1001
ACAD
1000
MTEXTBEGIN
1070
    73
1070
     1
1070
    44
1040
1.0
1070
    74
1070
     0
1000
MTEXTEND
  0
MTEXT
  5
2B8
330
1F
100
AcDbEntity
  8
0.20
100
AcDbMText
 10
282.8490767546965
 20
385.0952600443723
 30
0.0
 40
4.0
 41
79.0
 71
     1
 72
     5
  1
Specified cladding by the architect on building wrap on timber frame.
 73
     1
 44
1.0
1001
ACAD
1000
MTEXTBEGIN
1070
    73
1070
     1
1070
    44
1040
1.0
1070
    74
1070
     0
1000
MTEXTEND
  0
ARC
  5
2B9
330
1F
100
AcDbEntity
  8
0
100
AcDbCircle
 10
383.2964055991618
 20
383.938911423837
 30
0.0
 40
11.10339015422855
100
AcDbArc
 50
105.6736175970558
 51
70.61330301493353
  0
ARC
  5
2BA
330
1F
100
AcDbEntity
  8
0
100
AcDbCircle
 10
383.2964055991618
 20
383.938911423837
 30
0.0
 40
9.603390154228552
100
AcDbArc
 50
106.5933313325585
 51
69.05604189482343
  0
LINE
  5
2BB
330
1F
100
AcDbEntity
  8
0
100
AcDbLine
 10
382.4074499649598
 20
382.4237603291829
 30
0.0
 11
384.967310725284
 21
382.4237603291829
 31
0.0
  0
LINE
  5
2BC
330
1F
100
AcDbEntity
  8
0
100
AcDbLine
 10
384.967310725284
 20
382.4237603291829
 30
0.0
 11
386.9820885123902
 21
394.4127366267012
 31
0.0
  0
LINE
  5
2BD
330
1F
100
AcDbEntity
  8
0
100
AcDbLine
 10
382.4074499649598
 20
382.4237603291829
 30
0.0
 11
380.2967455101045
 21
394.6294358388104
 31
0.0
  0
SPLINE
  5
2BE
330
1F
100
AcDbEntity
  8
0
100
AcDbSpline
210
0.0
220
0.0
230
1.0
 70
     8
 71
     3
 72
    14
 73
    10
 74
     8
 42
0.0000000001
 43
0.0000000001
 44
0.0000000001
 40
0.0
 40
0.0
 40
0.0
 40
0.0
 40
1.153360054430621
 40
2.12844844136094
 40
2.891481907336435
 40
5.571474202971991
 40
6.397548371861267
 40
7.165475926971774
 40
8.492053936514528
 40
8.492053936514528
 40
8.492053936514528
 40
8.492053936514528
 10
380.2967455101045
 20
394.6294358388104
 30
0.0
 10
380.4322812356339
 20
394.9939088632338
 30
0.0
 10
380.6824033051849
 20
395.6665193266985
 30
0.0
 10
381.4993799283427
 20
396.3081243034435
 30
0.0
 10
382.9884675008689
 20
396.4041512826326
 30
0.0
 10
384.4240500018472
 20
396.6406044707485
 30
0.0
 10
385.8081480611688
 20
396.1677322297212
 30
0.0
 10
386.5198268379695
 20
395.4652733490629
 30
0.0
 10
386.8028394064736
 20
394.8208740018454
 30
0.0
 10
386.9820885123902
 20
394.4127366267012
 30
0.0
 11
380.2967455101045
 21
394.6294358388104
 31
0.0
 11
380.8064946368525
 21
395.6640349123341
 31
0.0
 11
381.5891056104431
 21
396.2456855173727
 31
0.0
 11
382.34224296251
 21
396.3681771461488
 31
0.0
 11
385.0220067482353
 21
396.4031736799936
 31
0.0
 11
385.7926595784832
 21
396.1056963737381
 31
0.0
 11
386.3531323124973
 21
395.5807363330448
 31
0.0
 11
386.9820885123902
 21
394.4127366267012
 31
0.0
  0
CIRCLE
  5
2BF
330
1F
100
AcDbEntity
  8
0
100
AcDbCircle
 10
383.6166131868506
 20
378.6972213488589
 30
0.0
 40
2.569476904230562
  0
HATCH
  5
2C0
330
1F
100
AcDbEntity
  8
0
100
AcDbHatch
 10
0.0
 20
0.0
 30
0.0
210
0.0
220
0.0
230
1.0
  2
SOLID
 70
     1
 71
     0
 91
        1
 92
        7
 72
     1
 73
     1
 93
        4
 10
386.9820885123902
 20
394.4127366267012
 42
0.0
 10
386.7291818609995
 20
392.9078104415812
 42
-6.050784953660254
 10
380.5538999190105
 20
393.1423762631607
 42
0.0
 10
380.2967455101045
 20
394.6294358388104
 42
6.48575145239653
 97
        0
 75
     0
 76
     1
 47
0.1251288764846155
 98
        1
 10
373.0047074090401
 20
385.7791363026226
  0
MTEXT
  5
2C1
330
1F
100
AcDbEntity
  8
0.20
100
AcDbMText
 10
401.5628516086419
 20
367.4835410973299
 30
0.0
 40
4.0
 41
79.0
 71
     1
 72
     5
  1
150mm upstand butynol or colour steel flashing behind building wrap on apron ventilation, installed by ASRNZ.
 73
     1
 44
1.0
1001
ACAD
1000
MTEXTBEGIN
1070
    73
1070
     1
1070
    44
1040
1.0
1070
    74
1070
     0
1000
MTEXTEND
  0
MTEXT
  5
2C2
102
{ACAD_XDICTIONARY
360
628
102
}
330
1F
100
AcDbEntity
  8
0.20
100
AcDbMText
 10
298.2169806397688
 20
111.7475082862618
 30
0.0
 40
4.0
 41
124.6787878787879
 71
     1
 72
     5
  1
All nogs MUST NOT restrict air movements through ventilation, therefore MUST provide sufficient spacings.
 73
     1
 44
1.0
1001
ACAD
1000
MTEXTBEGIN
1070
    73
1070
     1
1070
    44
1040
1.0
1070
    74
1070
     0
1000
MTEXTEND
  0
LEADER
  5
2C3
330
1F
100
AcDbEntity
  8
dim
100
AcDbLeader
  3
ISO-25
 76
     3
 10
385.3483492402452
 20
291.9297186391404
 30
0.0
 10
390.2520608450036
 20
302.2268346309604
 30
0.0
 10
396.5843085086349
 20
302.2268346309604
 30
0.0
1001
ACAD
1000
DSTYLE
1002
{
1070
    41
1040
5.0
1002
}
  0
LINE
  5
2C4
330
1F
100
AcDbEntity
  8
dim
100
AcDbLine
 10
219.2752120185214
 20
113.8148738638283
 30
0.0
 11
219.2752120185232
 21
123.8148738638237
 31
0.0
  0
LINE
  5
2C5
330
1F
100
AcDbEntity
  8
dim
100
AcDbLine
 10
216.3884606725769
 20
118.8148738638235
 30
0.0
 11
219.2752120185214
 21
113.8148738638283
 31
0.0
  0
LINE
  5
2C6
330
1F
100
AcDbEntity
  8
dim
100
AcDbLine
 10
219.2752120185232
 20
123.8148738638237
 30
0.0
 11
222.1619633644732
 21
118.8148738638235
 31
0.0
  0
LINE
  5
2C7
330
1F
100
AcDbEntity
  8
dim
100
AcDbLine
 10
146.9338326464108
 20
272.7673643593657
 30
0.0
 11
136.9338326464162
 21
272.7673643593675
 31
0.0
  0
LINE
  5
2C8
330
1F
100
AcDbEntity
  8
dim
100
AcDbLine
 10
141.9338326464162
 20
269.8806130134212
 30
0.0
 11
146.9338326464108
 21
272.7673643593657
 31
0.0
  0
LINE
  5
2C9
330
1F
100
AcDbEntity
  8
dim
100
AcDbLine
 10
136.9338326464162
 20
272.7673643593675
 30
0.0
 11
141.9338326464162
 21
275.6541157053175
 31
0.0
  0
LINE
  5
2CA
330
1F
100
AcDbEntity
  8
dim
100
AcDbLine
 10
246.1877394512157
 20
507.7903141934282
 30
0.0
 11
246.1877394512176
 21
517.7903141934236
 31
0.0
  0
LINE
  5
2CB
330
1F
100
AcDbEntity
  8
dim
100
AcDbLine
 10
243.3009881052712
 20
512.7903141934234
 30
0.0
 11
246.1877394512157
 21
507.7903141934282
 31
0.0
  0
LINE
  5
2CC
330
1F
100
AcDbEntity
  8
dim
100
AcDbLine
 10
246.1877394512176
 20
517.7903141934236
 30
0.0
 11
249.0744907971675
 21
512.7903141934234
 31
0.0
  0
LINE
  5
2CD
330
1F
100
AcDbEntity
  8
dim
100
AcDbLine
 10
457.0840438241284
 20
200.469131037416
 30
0.0
 11
447.0840438241339
 21
200.4691310374178
 31
0.0
  0
LINE
  5
2CE
330
1F
100
AcDbEntity
  8
dim
100
AcDbLine
 10
452.0840438241338
 20
197.5823796914715
 30
0.0
 11
457.0840438241284
 21
200.469131037416
 31
0.0
  0
LINE
  5
2CF
330
1F
100
AcDbEntity
  8
dim
100
AcDbLine
 10
447.0840438241339
 20
200.4691310374178
 30
0.0
 11
452.0840438241338
 21
203.3558823833678
 31
0.0
  0
LINE
  5
2D0
330
1F
100
AcDbEntity
  8
0.20
100
AcDbLine
 10
174.2752120185196
 20
177.2373254730505
 30
0.0
 11
174.2752120185196
 21
118.8148738638238
 31
0.0
  0
DIMENSION
  5
30A
330
1F
100
AcDbEntity
  8
dim
100
AcDbDimension
  2
*D1
 10
281.3672896387864
 20
249.7218873678588
 30
0.0
 11
272.6269870223346
 21
254.9461472915955
 31
0.0
 70
    33
  1
<>mm
 71
     5
 42
20.00000000000017
  3
ISO-25
100
AcDbAlignedDimension
 13
265.2752120185141
 23
263.9853554773415
 33
0.0
 14
284.0690644342412
 24
257.1449526108522
 34
0.0
  0
LEADER
  5
38A
330
1F
100
AcDbEntity
  8
dim
100
AcDbLeader
  3
Rockcote
 76
     2
 10
268.2898599476372
 20
358.9241150482835
 30
0.0
 10
397.0924514739475
 20
358.9241150482835
 30
0.0
211
-1.0
221
0.0000000000000001
231
0.0
  0
MTEXT
  5
38B
330
1F
100
AcDbEntity
  8
0.20
100
AcDbMText
 10
400.8014561614291
 20
327.5098211867296
 30
0.0
 40
4.0
 41
79.0
 71
     1
 72
     5
  1
Pabco Asphalt Cap Shingle.
 73
     1
 44
1.0
1001
ACAD
1000
MTEXTBEGIN
1070
    73
1070
     1
1070
    44
1040
1.0
1070
    74
1070
     0
1000
MTEXTEND
  0
INSERT
  5
41C
330
1F
100
AcDbEntity
  8
0.05
100
AcDbBlockReference
  2
cap shingle
 10
326.5703095548889
 20
-268.1890813631369
 30
0.0
 41
-1.0
 50
339.9999999999993
  0
HATCH
  5
428
330
1F
100
AcDbEntity
  8
light grey
100
AcDbHatch
 10
0.0
 20
0.0
 30
0.0
210
0.0
220
0.0
230
1.0
  2
SOLID
 70
     1
 71
     0
 91
        1
 92
        1
 93
        4
 72
     1
 10
452.0840438241321
 20
264.7928091464563
 11
452.084043824132
 21
266.3852723375711
 72
     1
 10
452.084043824132
 20
266.3852723375711
 11
431.094677869521
 21
273.8677386290929
 72
     1
 10
431.094677869521
 20
273.8677386290929
 11
430.5816364044862
 21
272.4581687886671
 72
     1
 10
430.5816364044862
 20
272.4581687886671
 11
452.0840438241321
 21
264.7928091464563
 97
        0
 75
     0
 76
     1
 98
        1
 10
2270.164505482017
 20
930.0187568677419
  0
HATCH
  5
429
330
1F
100
AcDbEntity
  8
0.05
100
AcDbHatch
 10
0.0
 20
0.0
 30
0.0
210
0.0
220
0.0
230
1.0
  2
AR-SAND
 70
     0
 71
     0
 91
        1
 92
        1
 93
        4
 72
     1
 10
452.0840438241321
 20
264.7928091464563
 11
452.084043824132
 21
266.3852723375711
 72
     1
 10
452.084043824132
 20
266.3852723375711
 11
431.094677869521
 21
273.8677386290929
 72
     1
 10
431.094677869521
 20
273.8677386290929
 11
430.5816364044862
 21
272.4581687886671
 72
     1
 10
430.5816364044862
 20
272.4581687886671
 11
452.0840438241321
 21
264.7928091464563
 97
        0
 75
     0
 76
     1
 52
0.0
 41
0.05
 77
     0
 78
     4
 53
122.5
 43
540.330002485746
 44
-228.9492567024781
 45
0.9121228079774416
 46
2.272127891507726
 79
     6
 49
0.0
 49
-1.9304
 49
0.0
 49
-2.159
 49
0.0
 49
-2.06375
 53
152.5
 43
540.330002485746
 44
-228.9492567024781
 45
-0.8862254420020519
 46
4.136706375626419
 79
     6
 49
0.0
 49
-1.0414
 49
0.0
 49
-1.7399
 49
0.0
 49
-0.6667500000000001
 53
192.5
 43
541.7978963286757
 44
-229.4835263683672
 45
-3.713990736520557
 46
1.359429178383148
 79
     6
 49
0.0
 49
-0.635
 49
0.0
 49
-2.286
 49
0.0
 49
-2.9845
 53
202.5
 43
541.7978963286757
 44
-229.4835263683672
 45
-3.206310224248782
 46
2.353183636667083
 79
     6
 49
0.0
 49
-0.3175
 49
0.0
 49
-1.498599999999999
 49
0.0
 49
-1.7145
 98
        1
 10
2272.846028478551
 20
930.0187568677419
  0
LINE
  5
42B
330
1F
100
AcDbEntity
  8
0.13
100
AcDbLine
 10
452.084043824132
 20
266.3852723375711
 30
0.0
 11
431.094677869521
 21
273.8677386290929
 31
0.0
  0
HATCH
  5
42C
330
1F
100
AcDbEntity
  8
0.05
100
AcDbHatch
 10
0.0
 20
0.0
 30
0.0
210
0.0
220
0.0
230
1.0
  2
SOLID
 70
     1
 71
     1
 91
        1
 92
        5
 93
        6
 72
     1
 10
290.3109320499382
 20
322.714431587849
 11
430.325132547038
 21
271.7534302323247
 72
     1
 10
430.325132547038
 20
271.7534302323247
 11
430.5816364044867
 21
272.4581687886671
 72
     1
 10
430.5816364044867
 20
272.4581687886671
 11
432.4655517141823
 21
271.7865747618939
 72
     1
 10
432.4655517141823
 20
271.7865747618939
 11
431.9480026811156
 21
270.3646204800839
 72
     1
 10
431.9480026811156
 20
270.3646204800839
 11
290.0544169424429
 21
322.0096621222599
 72
     1
 10
290.0544169424429
 20
322.0096621222599
 11
290.3109320499382
 21
322.714431587849
 97
        6
330
432
330
42E
330
42D
330
431
330
430
330
42F
 75
     0
 76
     1
 47
0.1818980469777868
 98
        1
 10
2415.507870061291
 20
927.4697748740234
  0
LINE
  5
42D
102
{ACAD_REACTORS
330
42C
102
}
330
1F
100
AcDbEntity
  8
0.13
100
AcDbLine
 10
452.0840438241321
 20
264.7928091464565
 30
0.0
 11
430.5909933945478
 21
272.4548331298925
 31
0.0
  0
LINE
  5
42E
102
{ACAD_REACTORS
330
42C
102
}
330
1F
100
AcDbEntity
  8
0.13
100
AcDbLine
 10
431.094677869521
 20
273.8677386290929
 30
0.0
 11
430.325132547038
 21
271.7534302323247
 31
0.0
  0
LINE
  5
42F
102
{ACAD_REACTORS
330
42C
102
}
330
1F
100
AcDbEntity
  8
0.13
100
AcDbLine
 10
290.3109320499382
 20
322.714431587849
 30
0.0
 11
290.0544169424429
 21
322.0096621222599
 31
0.0
  0
LINE
  5
430
102
{ACAD_REACTORS
330
42C
102
}
330
1F
100
AcDbEntity
  8
0.13
100
AcDbLine
 10
290.0544169424429
 20
322.0096621222599
 30
0.0
 11
431.9480026811156
 21
270.3646204800839
 31
0.0
  0
LINE
  5
431
102
{ACAD_REACTORS
330
42C
102
}
330
1F
100
AcDbEntity
  8
0.13
100
AcDbLine
 10
431.9480026811156
 20
270.3646204800839
 30
0.0
 11
432.4655517141823
 21
271.7865747618937
 31
0.0
  0
LINE
  5
432
102
{ACAD_REACTORS
330
42C
102
}
330
1F
100
AcDbEntity
  8
0.13
100
AcDbLine
 10
290.3109320499382
 20
322.714431587849
 30
0.0
 11
430.325132547038
 21
271.7534302323247
 31
0.0
  0
HATCH
  5
437
330
1F
100
AcDbEntity
  8
0.05
100
AcDbHatch
 10
0.0
 20
0.0
 30
0.0
210
0.0
220
0.0
230
1.0
  2
SOLID
 70
     1
 71
     0
 91
        1
 92
        5
 93
        4
 72
     1
 10
452.0840438241321
 20
263.035700868066
 11
452.0840438241321
 21
263.8338341974229
 72
     1
 10
452.0840438241321
 20
263.8338341974229
 11
433.144210409396
 21
270.7273698023473
 72
     1
 10
433.144210409396
 20
270.7273698023473
 11
432.8876953019007
 21
270.0226003367582
 72
     1
 10
432.8876953019007
 20
270.0226003367582
 11
452.0840438241321
 21
263.035700868066
 97
        0
 75
     0
 76
     1
 47
0.1818980469777868
 98
        1
 10
442.5498545569237
 20
266.904033887522
  0
LINE
  5
43A
330
1F
100
AcDbEntity
  8
0.13
100
AcDbLine
 10
433.144210409396
 20
270.7273698023473
 30
0.0
 11
432.8876953019007
 21
270.0226003367582
 31
0.0
  0
LINE
  5
43B
330
1F
100
AcDbEntity
  8
0.13
100
AcDbLine
 10
432.8876953019007
 20
270.0226003367582
 30
0.0
 11
452.0840438241321
 21
263.0357008680659
 31
0.0
  0
LINE
  5
43D
330
1F
100
AcDbEntity
  8
0.13
100
AcDbLine
 10
433.144210409396
 20
270.7273698023473
 30
0.0
 11
452.0840438241321
 21
263.8338341974229
 31
0.0
  0
LINE
  5
466
330
1F
100
AcDbEntity
  8
0.13
100
AcDbLine
 10
381.1790669865382
 20
312.039102127659
 30
0.0
 11
381.6921084515714
 21
313.4486719680851
 31
0.0
  0
HATCH
  5
468
330
1F
100
AcDbEntity
  8
light grey
100
AcDbHatch
 10
0.0
 20
0.0
 30
0.0
210
0.0
220
0.0
230
1.0
  2
SOLID
 70
     1
 71
     0
 91
        2
 92
        5
 93
        4
 72
     1
 10
267.7882422335131
 20
352.4616201692776
 11
268.3012836985481
 21
353.8711900097029
 72
     1
 10
268.3012836985481
 20
353.8711900097029
 11
354.399634786849
 21
323.1781232840584
 72
     1
 10
354.399634786849
 20
323.1781232840584
 11
354.2645261721937
 21
321.6338247519928
 72
     1
 10
354.2645261721937
 20
321.6338247519928
 11
267.7882422335131
 21
352.4616201692776
 97
        0
 92
        1
 93
        4
 72
     1
 10
381.1790669865383
 20
312.0391021276591
 11
381.6921084515715
 21
313.4486719680852
 72
     1
 10
381.6921084515715
 20
313.4486719680852
 11
354.3996347868491
 21
323.1781232840587
 72
     1
 10
354.3996347868491
 20
323.1781232840587
 11
354.2645261721934
 21
321.6338247519928
 72
     1
 10
354.2645261721934
 20
321.6338247519928
 11
381.1790669865383
 21
312.0391021276591
 97
        0
 75
     0
 76
     1
 47
0.233641508679934
 98
        2
 10
149.1019230416728
 20
544.681965647702
 10
139.4005508808572
 20
544.620722652913
  0
LINE
  5
46A
330
1F
100
AcDbEntity
  8
0.13
100
AcDbLine
 10
381.6921084515714
 20
313.4486719680851
 30
0.0
 11
268.3012836985481
 21
353.8711900097029
 31
0.0
  0
LINE
  5
46B
330
1F
100
AcDbEntity
  8
0.13
100
AcDbLine
 10
267.7882422335136
 20
352.4616201692773
 30
0.0
 11
268.3012836985481
 21
353.8711900097029
 31
0.0
  0
LINE
  5
46C
330
1F
100
AcDbEntity
  8
0.13
100
AcDbLine
 10
381.1790669865382
 20
312.039102127659
 30
0.0
 11
267.7882422335136
 21
352.4616201692773
 31
0.0
  0
HATCH
  5
46D
330
1F
100
AcDbEntity
  8
0.05
100
AcDbHatch
 10
0.0
 20
0.0
 30
0.0
210
0.0
220
0.0
230
1.0
  2
AR-SAND
 70
     0
 71
     0
 91
        2
 92
        5
 93
        4
 72
     1
 10
267.7882422335136
 20
352.4616201692773
 11
268.3012836985481
 21
353.8711900097029
 72
     1
 10
268.3012836985481
 20
353.8711900097029
 11
354.399634786849
 21
323.1781232840584
 72
     1
 10
354.399634786849
 20
323.1781232840584
 11
354.2645261721937
 21
321.6338247519928
 72
     1
 10
354.2645261721937
 20
321.6338247519928
 11
267.7882422335136
 21
352.4616201692773
 97
        0
 92
        1
 93
        4
 72
     1
 10
381.1790669865383
 20
312.0391021276591
 11
381.6921084515715
 21
313.4486719680851
 72
     1
 10
381.6921084515715
 20
313.4486719680851
 11
354.3996347868491
 21
323.1781232840587
 72
     1
 10
354.3996347868491
 20
323.1781232840587
 11
354.2645261721937
 21
321.6338247519928
 72
     1
 10
354.2645261721937
 20
321.6338247519928
 11
381.1790669865383
 21
312.0391021276591
 97
        0
 75
     0
 76
     1
 52
-15.0
 41
0.05
 77
     0
 78
     4
 53
137.4999999999993
 43
780.7405046305602
 44
-62.66576499158194
 45
0.2929730057419106
 46
2.430781765215988
 79
     6
 49
0.0
 49
-1.9304
 49
0.0
 49
-2.159
 49
0.0
 49
-2.06375
 53
167.4999999999993
 43
780.7405046305602
 44
-62.66576499158194
 45
-1.926686436353323
 46
3.766379501347699
 79
     6
 49
0.0
 49
-1.041399999999999
 49
0.0
 49
-1.7399
 49
0.0
 49
-0.66675
 53
207.4999999999994
 43
782.296660368449
 44
-62.80191097732805
 45
-3.939285732837191
 46
0.3518562164653992
 79
     6
 49
0.0
 49
-0.635
 49
0.0
 49
-2.286
 49
0.0
 49
-2.9845
 53
217.4999999999994
 43
782.296660368449
 44
-62.80191097732805
 45
-3.706106594489629
 46
1.44314669811509
 79
     6
 49
0.0
 49
-0.3175
 49
0.0
 49
-1.498599999999999
 49
0.0
 49
-1.7145
 47
0.1838087553171885
 98
        2
 10
140.4321896067188
 20
544.8063759725462
 10
147.1757704260322
 20
545.0926610537638
  0
MTEXT
  5
47C
330
1F
100
AcDbEntity
  8
0.20
100
AcDbMText
 10
400.5482036795292
 20
245.7383253562155
 30
0.0
 40
4.0
 41
23.56190476190477
 71
     7
 72
     5
  1
Underlay
 73
     1
 44
1.0
1001
ACAD
1000
MTEXTBEGIN
1070
    73
1070
     1
1070
    44
1040
1.0
1070
    74
1070
     0
1000
MTEXTEND
  0
LEADER
  5
47D
330
1F
100
AcDbEntity
  8
dim
100
AcDbLeader
  3
ISO-25
 76
     3
 10
393.1907117371352
 20
282.4686904512846
 30
0.0
 10
393.1165465405102
 20
249.0363717493772
 30
0.0
 10
399.0548261058766
 20
249.0363717493772
 30
0.0
1001
ACAD
1000
DSTYLE
1002
{
1070
    41
1040
5.0
1002
}
  0
LWPOLYLINE
  5
550
102
{ACAD_REACTORS
330
55D
102
}
330
1F
100
AcDbEntity
  8
0.20
100
AcDbPolyline
 90
        4
 70
     1
 43
0.0
 10
285.2752120185233
 20
407.1570939399443
 10
325.2752120185232
 20
407.1570939399443
 10
325.2752120185232
 20
512.790314193426
 10
285.2752120185233
 20
512.790314193426
  0
HATCH
  5
55D
330
1F
100
AcDbEntity
  8
0.05
 62
     8
100
AcDbHatch
 10
0.0
 20
0.0
 30
0.0
210
0.0
220
0.0
230
1.0
  2
SOLID
 70
     1
 71
     1
 91
        1
 92
        7
 72
     0
 73
     1
 93
        4
 10
325.2752120185232
 20
512.790314193426
 10
285.2752120185233
 20
512.790314193426
 10
285.2752120185233
 20
407.1570939399443
 10
325.2752120185232
 20
407.1570939399443
 97
        1
330
550
 75
     0
 76
     1
 47
0.55469582170667
 98
        1
 10
313.0528379783277
 20
487.0174221918841
  0
VIEWPORT
  5
3BF
102
{ACAD_XDICTIONARY
360
62B
102
}
330
3BE
100
AcDbEntity
 67
     1
  8
0
100
AcDbViewport
 10
84.48518878084035
 20
35.61200483554569
 30
0.0
 40
128.6807426055538
 41
72.62565050474417
 68
     1
 69
     1
 12
84.48518878084035
 22
35.61200483554569
 13
0.0
 23
0.0
 14
10.0
 24
10.0
 15
10.0
 25
10.0
 16
0.0
 26
0.0
 36
1.0
 17
0.0
 27
0.0
 37
0.0
 42
50.0
 43
0.0
 44
0.0
 45
72.62565050474417
 50
0.0
 51
0.0
 72
  1000
 90
    32800
  1

281
     0
 71
     1
 74
     0
110
0.0
120
0.0
130
0.0
111
1.0
121
0.0
131
0.0
112
0.0
122
1.0
132
0.0
 79
     0
146
0.0
  0
LINE
  5
3C0
330
3BE
100
AcDbEntity
 67
     1
  8
0.20
100
AcDbLine
 10
11.00000095487701
 20
17.52002771414419
 30
0.0
 11
11.00000095487701
 21
286.1806912824301
 31
0.0
  0
LINE
  5
3C1
330
3BE
100
AcDbEntity
 67
     1
  8
0.20
100
AcDbLine
 10
192.6233248466163
 20
286.1806912824301
 30
0.0
 11
192.6233248466163
 21
17.52002771414419
 31
0.0
  0
LINE
  5
3C4
330
3BE
100
AcDbEntity
 67
     1
  8
0.20
100
AcDbLine
 10
192.6233248466163
 20
57.5200277141442
 30
0.0
 11
11.00000095487701
 21
57.5200277141442
 31
0.0
  0
MTEXT
  5
3C6
102
{ACAD_XDICTIONARY
360
3C7
102
}
330
3BE
100
AcDbEntity
 67
     1
  8
0.20
100
AcDbMText
 10
13.4221874154598
 20
53.39072282666837
 30
0.0
 40
1.5
 41
0.0
 71
     1
 72
     5
  1
2.50 - Wall to Roof Junction Detail.dwg
 73
     1
 44
1.0
1001
ACAD
1000
MTEXTBEGIN
1070
    73
1070
     1
1070
    44
1040
1.0
1070
    74
1070
     0
1000
MTEXTEND
  0
MTEXT
  5
3C8
330
3BE
100
AcDbEntity
 67
     1
  8
0.20
100
AcDbMText
 10
12.22497190901595
 20
56.48296053204831
 30
0.0
 40
1.5
 41
15.8
 71
     1
 72
     5
  1
File Name:
 73
     1
 44
1.0
1001
ACAD
1000
MTEXTBEGIN
1070
    73
1070
     1
1070
    44
1040
1.0
1070
    74
1070
     0
1000
MTEXTEND
  0
LINE
  5
3C9
330
3BE
100
AcDbEntity
 67
     1
  8
0.20
100
AcDbLine
 10
91.00000095487699
 20
49.5200277141442
 30
0.0
 11
91.000000954877
 21
57.52002771414419
 31
0.0
  0
MTEXT
  5
3CA
330
3BE
100
AcDbEntity
 67
     1
  8
0.20
100
AcDbMText
 10
92.14797886362203
 20
56.48296053204831
 30
0.0
 40
1.5
 41
15.8
 71
     1
 72
     5
  1
Scale:
 73
     1
 44
1.0
1001
ACAD
1000
MTEXTBEGIN
1070
    73
1070
     1
1070
    44
1040
1.0
1070
    74
1070
     0
1000
MTEXTEND
  0
MTEXT
  5
3CB
102
{ACAD_XDICTIONARY
360
3CC
102
}
330
3BE
100
AcDbEntity
 67
     1
  8
0.20
100
AcDbMText
 10
93.84111818570659
 20
53.39072282666837
 30
0.0
 40
1.5
 41
0.0
 71
     1
 72
     5
  1
1:2 @ A4
 73
     1
 44
1.0
1001
ACAD
1000
MTEXTBEGIN
1070
    73
1070
     1
1070
    44
1040
1.0
1070
    74
1070
     0
1000
MTEXTEND
  0
LINE
  5
3CD
330
3BE
100
AcDbEntity
 67
     1
  8
0.20
100
AcDbLine
 10
152.6233248466164
 20
57.5200277141442
 30
0.0
 11
152.6233248466164
 21
39.5200277141442
 31
0.0
  0
LINE
  5
3CE
330
3BE
100
AcDbEntity
 67
     1
  8
0.20
100
AcDbLine
 10
192.6233248466163
 20
49.5200277141442
 30
0.0
 11
11.00000095487701
 21
49.5200277141442
 31
0.0
  0
LINE
  5
3CF
330
3BE
100
AcDbEntity
 67
     1
  8
0.20
100
AcDbLine
 10
192.6233248466163
 20
39.5200277141442
 30
0.0
 11
11.00000095487701
 21
39.5200277141442
 31
0.0
  0
LINE
  5
3D0
330
3BE
100
AcDbEntity
 67
     1
  8
0.20
100
AcDbLine
 10
111.000000954877
 20
49.52002771414413
 30
0.0
 11
111.000000954877
 21
57.52002771414412
 31
0.0
  0
MTEXT
  5
3D1
330
3BE
100
AcDbEntity
 67
     1
  8
0.20
100
AcDbMText
 10
112.1243152509457
 20
56.48296053204831
 30
0.0
 40
1.5
 41
15.8
 71
     1
 72
     5
  1
Drawn By:
 73
     1
 44
1.0
1001
ACAD
1000
MTEXTBEGIN
1070
    73
1070
     1
1070
    44
1040
1.0
1070
    74
1070
     0
1000
MTEXTEND
  0
MTEXT
  5
3D2
330
3BE
100
AcDbEntity
 67
     1
  8
0.20
100
AcDbMText
 10
12.22497190901595
 20
48.35827150314413
 30
0.0
 40
1.5
 41
15.8
 71
     1
 72
     5
  1
Drawing Name:
 73
     1
 44
1.0
1001
ACAD
1000
MTEXTBEGIN
1070
    73
1070
     1
1070
    44
1040
1.0
1070
    74
1070
     0
1000
MTEXTEND
  0
MTEXT
  5
3D3
102
{ACAD_XDICTIONARY
360
3D4
102
}
330
3BE
100
AcDbEntity
 67
     1
  8
0.20
100
AcDbMText
 10
13.4221874154598
 20
44.66214100075474
 30
0.0
 40
2.5
 41
0.0
 71
     1
 72
     5
  1
Wall to Roof (Apron) Junction Detail
 73
     1
 44
1.0
1001
ACAD
1000
MTEXTBEGIN
1070
    73
1070
     1
1070
    44
1040
1.0
1070
    74
1070
     0
1000
MTEXTEND
  0
MTEXT
  5
3D5
330
3BE
100
AcDbEntity
 67
     1
  8
0.20
100
AcDbMText
 10
153.7041567885121
 20
56.47493550669788
 30
0.0
 40
1.5
 41
15.8
 71
     1
 72
     5
  1
Date:
 73
     1
 44
1.0
1001
ACAD
1000
MTEXTBEGIN
1070
    73
1070
     1
1070
    44
1040
1.0
1070
    74
1070
     0
1000
MTEXTEND
  0
MTEXT
  5
3DB
330
3BE
100
AcDbEntity
 67
     1
  8
0.20
100
AcDbMText
 10
153.7041567885121
 20
48.79975605429991
 30
0.0
 40
1.5
 41
15.8
 71
     1
 72
     5
  1
Sheet:
 73
     1
 44
1.0
1001
ACAD
1000
MTEXTBEGIN
1070
    73
1070
     1
1070
    44
1040
1.0
1070
    74
1070
     0
1000
MTEXTEND
  0
MTEXT
  5
3DC
102
{ACAD_XDICTIONARY
360
3DD
102
}
330
3BE
100
AcDbEntity
 67
     1
  8
0.20
100
AcDbMText
 10
114.1297379034486
 20
53.39072282666837
 30
0.0
 40
1.5
 41
0.0
 71
     1
 72
     5
  1
I.M
 73
     1
 44
1.0
1001
ACAD
1000
MTEXTBEGIN
1070
    73
1070
     1
1070
    44
1040
1.0
1070
    74
1070
     0
1000
MTEXTEND
  0
MTEXT
  5
3DE
102
{ACAD_XDICTIONARY
360
3DF
102
}
330
3BE
100
AcDbEntity
 67
     1
  8
0.20
100
AcDbMText
 10
155.5890904233638
 20
53.39072282666837
 30
0.0
 40
1.5
 41
0.0
 71
     1
 72
     5
  1
28th January 2013
 73
     1
 44
1.0
1001
ACAD
1000
MTEXTBEGIN
1070
    73
1070
     1
1070
    44
1040
1.0
1070
    74
1070
     0
1000
MTEXTEND
  0
MTEXT
  5
3E0
102
{ACAD_XDICTIONARY
360
3E1
102
}
330
3BE
100
AcDbEntity
 67
     1
  8
0.20
100
AcDbMText
 10
155.3576492159322
 20
44.66214100075474
 30
0.0
 40
2.5
 41
0.0
 71
     1
 72
     5
  1
11
 73
     1
 44
1.0
1001
ACAD
1000
MTEXTBEGIN
1070
    73
1070
     1
1070
    44
1040
1.0
1070
    74
1070
     0
1000
MTEXTEND
  0
VIEWPORT
  5
3E2
102
{ACAD_XDICTIONARY
360
62D
102
}
330
3BE
100
AcDbEntity
 67
     1
  8
Defpoints
100
AcDbViewport
 10
97.41016606558495
 20
167.8819966893952
 30
0.0
 40
172.8203302214159
 41
220.7239379505021
 68
     2
 69
     2
 12
308.1426590191178
 22
301.8815632841393
 13
0.0
 23
0.0
 14
10.0
 24
10.0
 15
10.0
 25
10.0
 16
0.0
 26
0.0
 36
1.0
 17
0.0
 27
0.0
 37
0.0
 42
50.0
 43
0.0
 44
0.0
 45
441.4478759010042
 50
0.0
 51
0.0
 72
  1000
 90
    49248
  1

281
     0
 71
     1
 74
     0
110
0.0
120
0.0
130
0.0
111
1.0
121
0.0
131
0.0
112
0.0
122
1.0
132
0.0
 79
     0
146
0.0
  0
OLE2FRAME
  5
3E5
330
3BE
100
AcDbEntity
 67
     1
  8
0.20
100
AcDbOle2Frame
 70
     2
  1
OLE
1001
ACAD
1000
OLEBEGIN
1070
    70
1070
     1
1070
    71
1070
     1
1070
    40
1040
0.0
1070
    41
1040
0.1619238588059488
1070
    42
1040
0.1617867940552742
1070
    72
1070
     0
1070
     3
1000

1070
    90
1071
        0
1070
    43
1040
0.0
1070
     4
1000

1070
    91
1071
        0
1070
    44
1040
0.0
1000
OLEEND
  0
MTEXT
  5
51B
330
3BE
100
AcDbEntity
 67
     1
  8
0.05
 62
     7
100
AcDbMText
 10
12.59379159433002
 20
22.36831706833795
 30
0.0
 40
1.363599999999999
 41
101.1024152163841
 71
     1
 72
     5
  1
{\C256;Ph: 09 636 7051 | Fax: 09 636 7053 | Free Ph: 0800 261 116 | e-mail:  info@asphaltshingle.co.nz\Pwww.asphaltshingle.co.nz   |  PO Box \fTimes New Roman|b1|i1|c0|p18;24 676\fTimes New Roman|b1|i1|c0|p18;, Royal Oak, Auckland, New Zealand}
  7
Compan
 73
     1
 44
1.0
1001
ACAD
1000
MTEXTBEGIN
1070
    73
1070
     1
1070
    44
1040
1.0
1070
    74
1070
     0
1000
MTEXTEND
  0
LINE
  5
51C
330
3BE
100
AcDbEntity
 67
     1
  8
0.20
100
AcDbLine
 10
192.623326565555
 20
39.5200274684799
 30
0.0
 11
11.00000267381563
 21
39.5200274684799
 31
0.0
  0
LINE
  5
51D
330
3BE
100
AcDbEntity
 67
     1
  8
0.20
100
AcDbLine
 10
192.6233262056917
 20
17.52002740592764
 30
0.0
 11
11.00000231395234
 21
17.52002740592764
 31
0.0
  0
IMAGE
  5
51E
330
3BE
100
AcDbEntity
 67
     1
  8
0.05
 62
     7
 92
      140
310
8C0000000100000084000000060000000500000003B3A44D00002640BC905E08D39F3740000000000000000003B3A44D00002640D4BD0E4290C243400000000000000000085F4108BF3F5940D4BD0E4290C243400000000000000000085F4108BF3F5940BC905E08D39F3740000000000000000003B3A44D00002640BC905E
310
08D39F37400000000000000000
100
AcDbRasterImage
 90
        0
 10
11.00000231395234
 20
23.62431385334706
 30
0.0
 11
0.1195166432524857
 21
0.0
 31
0.0
 12
0.0
 22
0.1195166432524857
 32
0.0
 13
753.0
 23
133.0
340
50A
 70
     7
280
     0
281
    50
282
    50
283
     0
360
51F
 71
     1
 91
        2
 14
-0.5
 24
-0.5
 14
752.5
 24
132.5
  0
MTEXT
  5
520
102
{ACAD_XDICTIONARY
360
521
102
}
330
3BE
100
AcDbEntity
 67
     1
  8
0.20
100
AcDbMText
 10
103.804114832258
 20
38.36196285716995
 30
0.0
 40
1.363599999999999
 41
0.0
 71
     1
 72
     5
  3
*  All constructions are to comply with New Zealand Building Standards and \P   Territorial Authority Regulations.\P*  The contractor shall verify all dimensions and levels on site before commencing work.\P*  These drawings are not to be used for con
  3
struction without Territorial Authority Consent.\P*  Do not attempt to reproduce these drawings in any unlawful manner without the consent of \P    Asphalt Shingle Roofing NZ.\P*  These drawings may be utilised in order to create working drawings for
  1
 submition to a Territorial \P    Authority or certifier for consent purposes.
 73
     1
 44
1.0
1001
ACAD
1000
MTEXTBEGIN
1070
    73
1070
     1
1070
    44
1040
1.0
1070
    74
1070
     0
1000
MTEXTEND
  0
LINE
  5
522
330
3BE
100
AcDbEntity
 67
     1
  8
0.05
 62
     7
100
AcDbLine
 10
100.996034683074
 20
23.62431385334706
 30
0.0
 11
100.996034683074
 21
17.52002740592764
 31
0.0
  0
LINE
  5
523
330
3BE
100
AcDbEntity
 67
     1
  8
0.20
100
AcDbLine
 10
192.6233262056917
 20
39.52002740592764
 30
0.0
 11
11.00000231395234
 21
39.52002740592765
 31
0.0
  0
LINE
  5
55F
330
3BE
100
AcDbEntity
 67
     1
  8
0.20
100
AcDbLine
 10
192.6233248466163
 20
286.1806912824301
 30
0.0
 11
11.00000095487701
 21
286.1806912824301
 31
0.0
  0
IMAGE
  5
5C6
330
3BE
100
AcDbEntity
 67
     1
  8
0.20
 92
      140
310
8C00000001000000840000000600000005000000C092451885B75E4092334008C1576B400000000000000000C092451885B75E4072FCCDE9FFC4714000000000000000005FDC7F3D5A7D674072FCCDE9FFC4714000000000000000005FDC7F3D5A7D674092334008C1576B400000000000000000C092451885B75E40923340
310
08C1576B400000000000000000
100
AcDbRasterImage
 90
        0
 10
122.8674984626223
 20
218.7423135045943
 30
0.0
 11
0.5203981375258298
 21
0.0
 31
0.0
 12
0.0
 22
0.5203981375258298
 32
0.0
 13
125.0
 23
126.0
340
5C4
 70
     7
280
     0
281
    50
282
    50
283
     0
360
5C5
 71
     1
 91
        2
 14
-0.5
 24
-0.5
 14
124.5
 24
125.5
  0
ENDSEC
  0
SECTION
  2
OBJECTS
  0
DICTIONARY
  5
C
330
0
100
AcDbDictionary
281
     1
  3
ACAD_COLOR
350
6B
  3
ACAD_FIELDLIST
350
14E
  3
ACAD_GROUP
350
D
  3
ACAD_IMAGE_DICT
350
3E8
  3
ACAD_IMAGE_VARS
350
51A
  3
ACAD_LAYOUT
350
1A
  3
ACAD_MATERIAL
350
6A
  3
ACAD_MLINESTYLE
350
17
  3
ACAD_PLOTSETTINGS
350
19
  3
ACAD_PLOTSTYLENAME
350
E
  3
ACAD_TABLESTYLE
350
7E
  3
ACDBHEADERROUNDTRIPXREC
350
621
  3
AcDbVariableDictionary
350
5E
  3
DWGPROPS
350
620
  0
DICTIONARY
  5
10F
330
2
100
AcDbDictionary
280
     1
281
     1
  3
ACAD_LAYERFILTERS
360
2E8
  3
ACAD_LAYERSTATES
360
132
  3
ACLYDICTIONARY
360
2E7
  0
DICTIONARY
  5
34D
330
1F
100
AcDbDictionary
280
     1
281
     1
  3
ACAD_SORTENTS
360
34E
  0
DICTIONARY
  5
3F5
330
3F4
100
AcDbDictionary
280
     1
281
     1
  3
ACAD_SORTENTS
360
3F6
  0
DICTIONARY
  5
405
330
404
100
AcDbDictionary
280
     1
281
     1
  3
ACAD_SORTENTS
360
464
  0
DICTIONARY
  5
506
330
503
100
AcDbDictionary
280
     1
281
     1
  3
ACAD_SORTENTS
360
507
  0
IMAGEDEF_REACTOR
  5
505
330
504
100
AcDbRasterImageDefReactor
 90
        2
330
504
  0
DICTIONARY
  5
626
330
2AA
100
AcDbDictionary
280
     1
281
     1
  3
ACAD_MTEXT_RT
360
627
  0
DICTIONARY
  5
628
330
2C2
100
AcDbDictionary
280
     1
281
     1
  3
ACAD_MTEXT_RT
360
629
  0
DICTIONARY
  5
62B
330
3BF
100
AcDbDictionary
280
     1
281
     1
  3
ACAD_XREC_ROUNDTRIP
360
62C
  0
DICTIONARY
  5
3C7
330
3C6
100
AcDbDictionary
280
     1
281
     1
  0
DICTIONARY
  5
3CC
330
3CB
100
AcDbDictionary
280
     1
281
     1
  0
DICTIONARY
  5
3D4
330
3D3
100
AcDbDictionary
280
     1
281
     1
  0
DICTIONARY
  5
3DD
330
3DC
100
AcDbDictionary
280
     1
281
     1
  0
DICTIONARY
  5
3DF
330
3DE
100
AcDbDictionary
280
     1
281
     1
  0
DICTIONARY
  5
3E1
330
3E0
100
AcDbDictionary
280
     1
281
     1
  0
DICTIONARY
  5
62D
330
3E2
100
AcDbDictionary
280
     1
281
     1
  3
ACAD_XREC_ROUNDTRIP
360
62E
  0
IMAGEDEF_REACTOR
  5
51F
330
51E
100
AcDbRasterImageDefReactor
 90
        2
330
51E
  0
DICTIONARY
  5
521
330
520
100
AcDbDictionary
280
     1
281
     1
  0
IMAGEDEF_REACTOR
  5
5C5
330
5C6
100
AcDbRasterImageDefReactor
 90
        2
330
5C6
  0
DICTIONARY
  5
6B
102
{ACAD_REACTORS
330
C
102
}
330
C
100
AcDbDictionary
281
     1
  0
ACAD_PROXY_OBJECT
  5
14E
102
{ACAD_REACTORS
330
C
102
}
330
C
100
AcDbProxyObject
 90
      499
 91
      507
 95
  4980761
 70
     0
 93
        3
310
90
 94
        0
1001
ACAD
1000
AcRTDxfName
1000
FIELDLIST
1000
AcRTDxfName
1000
FIELDLIST
1000
AcRTDxfName
1000
FIELDLIST
  0
DICTIONARY
  5
D
102
{ACAD_REACTORS
330
C
102
}
330
C
100
AcDbDictionary
281
     1
  0
DICTIONARY
  5
3E8
102
{ACAD_REACTORS
330
C
102
}
330
C
100
AcDbDictionary
281
     1
  3
ApronVent
350
5C4
  3
asphalt logo
350
50A
  0
RASTERVARIABLES
  5
51A
102
{ACAD_REACTORS
330
C
102
}
330
C
100
AcDbRasterVariables
 90
        0
 70
     1
 71
     1
 72
     1
  0
DICTIONARY
  5
1A
102
{ACAD_REACTORS
330
C
102
}
330
C
100
AcDbDictionary
281
     1
  3
ASCL A4
350
3BB
  3
Model
350
22
  0
DICTIONARY
  5
6A
102
{ACAD_REACTORS
330
C
102
}
330
C
100
AcDbDictionary
281
     1
  0
DICTIONARY
  5
17
102
{ACAD_REACTORS
330
C
102
}
330
C
100
AcDbDictionary
281
     1
  3
Standard
350
18
  0
DICTIONARY
  5
19
102
{ACAD_REACTORS
330
C
102
}
330
C
100
AcDbDictionary
281
     1
  0
ACDBDICTIONARYWDFLT
  5
E
102
{ACAD_REACTORS
330
C
102
}
330
C
100
AcDbDictionary
281
     1
  3
Normal
350
F
100
AcDbDictionaryWithDefault
340
F
  0
DICTIONARY
  5
7E
102
{ACAD_REACTORS
330
C
102
}
330
C
100
AcDbDictionary
281
     1
  3
Standard
350
7F
  0
DICTIONARY
  5
621
102
{ACAD_REACTORS
330
C
102
}
330
C
100
AcDbDictionary
281
     1
  3
COLORDICT
350
623
  3
MATERIALDICT
350
622
  0
DICTIONARY
  5
5E
102
{ACAD_REACTORS
330
C
102
}
330
C
100
AcDbDictionary
281
     1
  3
CTABLESTYLE
350
84
  3
DIMASSOC
350
5F
  3
HIDETEXT
350
63
  3
PROJECTNAME
350
606
  0
XRECORD
  5
620
102
{ACAD_REACTORS
330
C
102
}
330
C
100
AcDbXrecord
280
     1
  1
DWGPROPS COOKIE
  2

  3

  4

  6

  7

  8
Autodesk
  9

300
=
301
=
302
=
303
=
304
=
305
=
306
=
307
=
308
=
309
=
 40
0.0869954282407408
 41
2454141.53604691
 42
2456348.407501447
  1

 90
        0
  0
DICTIONARY
  5
2E8
102
{ACAD_REACTORS
330
10F
102
}
330
10F
100
AcDbDictionary
281
     1
  0
DICTIONARY
  5
132
102
{ACAD_REACTORS
330
10F
102
}
330
10F
100
AcDbDictionary
281
     1
  0
DICTIONARY
  5
2E7
102
{ACAD_REACTORS
330
10F
102
}
330
10F
100
AcDbDictionary
281
     1
1001
ACAD
1000
<All
  0
SORTENTSTABLE
  5
34E
102
{ACAD_REACTORS
330
34D
102
}
330
34D
100
AcDbSortentsTable
330
1F
331
30A
  5
389
331
2B3
  5
2BC
331
27C
  5
27D
331
284
  5
285
331
2BB
  5
2C4
331
28C
  5
28D
331
2C3
  5
2CC
331
2CB
  5
34F
331
294
  5
295
331
428
  5
432
331
25D
  5
25D
331
29C
  5
2A5
331
430
  5
43A
331
265
  5
265
331
38A
  5
38A
331
2AC
  5
2B5
331
26D
  5
26E
331
275
  5
276
331
2B4
  5
2BD
331
27D
  5
27E
331
468
  5
466
331
2BC
  5
2C5
331
28D
  5
28E
331
2C4
  5
2CD
331
2CC
  5
350
331
295
  5
297
331
429
  5
433
331
25E
  5
25E
331
29D
  5
2A6
331
431
  5
43B
331
2A5
  5
2AE
331
266
  5
266
331
38B
  5
38B
331
2AD
  5
2B6
331
26E
  5
26F
331
276
  5
277
331
27E
  5
27F
331
2B5
  5
2BE
331
286
  5
287
331
2BD
  5
2C6
331
28E
  5
28F
331
2C5
  5
2CE
331
2CD
  5
358
331
296
  5
298
331
25F
  5
25F
331
29E
  5
2A7
331
432
  5
43C
331
2A6
  5
2AF
331
267
  5
267
331
43A
  5
42E
331
2AE
  5
2B7
331
26F
  5
270
331
277
  5
278
331
27F
  5
280
331
2B6
  5
2BF
331
46A
  5
468
331
287
  5
288
331
2BE
  5
2C7
331
28F
  5
290
331
2C6
  5
2CF
331
2CE
  5
379
331
297
  5
299
331
42B
  5
435
331
260
  5
260
331
29F
  5
2A8
331
2A7
  5
2B0
331
268
  5
268
331
43B
  5
42F
331
270
  5
271
331
2AF
  5
2B8
331
278
  5
279
331
280
  5
281
331
2B7
  5
2C0
331
46B
  5
469
331
288
  5
289
331
2BF
  5
2C8
331
2C7
  5
2D0
331
290
  5
291
331
41C
  5
43D
331
2CF
  5
380
331
298
  5
29A
331
42C
  5
436
331
261
  5
261
331
2A8
  5
2B1
331
269
  5
269
331
271
  5
272
331
2B0
  5
2B9
331
279
  5
27A
331
281
  5
282
331
2B8
  5
2C1
331
46C
  5
46A
331
289
  5
28A
331
2C0
  5
2C9
331
291
  5
292
331
2C8
  5
2E9
331
2D0
  5
387
331
25A
  5
25A
331
299
  5
29B
331
42D
  5
437
331
2A9
  5
2B2
331
26A
  5
26B
331
43D
  5
431
331
272
  5
273
331
2B1
  5
2BA
331
27A
  5
27B
331
282
  5
283
331
2B9
  5
2C2
331
46D
  5
46B
331
28A
  5
28B
331
2C1
  5
2CA
331
292
  5
293
331
2C9
  5
30A
331
25B
  5
25B
331
29A
  5
29C
331
42E
  5
438
331
2AA
  5
2B3
331
26B
  5
26C
331
273
  5
274
331
2B2
  5
2BB
331
27B
  5
27C
331
466
  5
46C
331
283
  5
284
331
2BA
  5
2C3
331
28B
  5
28C
331
2C2
  5
2CB
331
293
  5
294
331
2CA
  5
34C
331
25C
  5
25C
331
29B
  5
29D
331
42F
  5
439
331
437
  5
42B
331
2AB
  5
2B4
331
26C
  5
26D
331
274
  5
275
  0
SORTENTSTABLE
  5
3F6
102
{ACAD_REACTORS
330
3F5
102
}
330
3F5
100
AcDbSortentsTable
330
3F4
331
3FF
  5
39
331
3FD
  5
45
331
3FB
  5
41
331
3F9
  5
3D
331
402
  5
3E
331
400
  5
3B
331
3FE
  5
3F
331
3FC
  5
43
331
3FA
  5
40
331
3F8
  5
3C
  0
SORTENTSTABLE
  5
464
102
{ACAD_REACTORS
330
405
102
}
330
405
100
AcDbSortentsTable
330
404
331
40C
  5
408
331
40A
  5
40B
331
408
  5
409
331
40B
  5
40C
331
409
  5
40A
  0
SORTENTSTABLE
  5
507
102
{ACAD_REACTORS
330
506
102
}
330
506
100
AcDbSortentsTable
330
503
  0
XRECORD
  5
627
102
{ACAD_REACTORS
330
626
102
}
330
626
100
AcDbXrecord
280
     1
 40
1117515.0
  1
\pt88;All carpentry works and materials shall be provided by the main contractor.\P\PFor roofing underlay & plywood installations, refer to Installation Guide.
  0
XRECORD
  5
629
102
{ACAD_REACTORS
330
628
102
}
330
628
100
AcDbXrecord
280
     1
 40
536046.0
  1
\pt88;All nogs MUST NOT restrict air movements through ventilation, therefore MUST provide sufficient spacings.
  0
XRECORD
  5
62C
102
{ACAD_REACTORS
330
62B
102
}
330
62B
100
AcDbXrecord
280
     1
102
SHADEPLOT
 70
     0
  0
XRECORD
  5
62E
102
{ACAD_REACTORS
330
62D
102
}
330
62D
100
AcDbXrecord
280
     1
102
SHADEPLOT
 70
     0
  0
IMAGEDEF
  5
5C4
102
{ACAD_REACTORS
330
3E8
330
5C5
102
}
330
3E8
100
AcDbRasterImageDef
 90
        0
  1
C:\Ashalt Net3.5\Main2\App_Images\ApronVent.jpg
 10
125.0
 20
126.0
 11
0.008
 21
0.008
280
     1
281
     0
  0
IMAGEDEF
  5
50A
102
{ACAD_REACTORS
330
505
330
3E8
330
51F
102
}
330
3E8
100
AcDbRasterImageDef
 90
        0
  1
C:\Ashalt Net3.5\Main2\App_Images\asphalt logo.jpg
 10
753.0
 20
133.0
 11
0.2645833333333333
 21
0.2645833333333333
280
     1
281
     5
  0
LAYOUT
  5
3BB
102
{ACAD_XDICTIONARY
360
3BC
102
}
102
{ACAD_REACTORS
330
1A
102
}
330
1A
100
AcDbPlotSettings
  1

  2
Bullzip PDF Printer
  4
A4
  6

 40
3.174999952316284
 41
3.174999952316284
 42
3.175003051757812
 43
3.17498779296875
 44
209.8886566162109
 45
297.0530090332031
 46
2.45
 47
0.0
 48
7.938700532635721
 49
16.65764277336143
140
196.1108882113672
141
292.0312034572544
142
1.0
143
0.9472676254408703
 70
   692
 72
     1
 73
     0
 74
     4
  7
Eboss.ctb
 75
     0
147
1.055667873727435
148
-7.938700532635721
149
-16.65764277336143
100
AcDbLayout
  1
ASCL A4
 70
     1
 71
     1
 10
2.610320184700066
 20
13.65006810775591
 11
201.4310495445124
 21
295.0387666047036
 12
0.0
 22
0.0
 32
0.0
 14
11.00000095487701
 24
17.52002740592764
 34
0.0
 15
192.7575526067821
 25
286.1806912824301
 35
0.0
146
0.0
 13
0.0
 23
0.0
 33
0.0
 16
1.0
 26
0.0
 36
0.0
 17
0.0
 27
1.0
 37
0.0
 76
     0
330
3BE
331
3BF
1001
ACAD_PSEXT
1000
Adobe PDF.pc3
1000
Adobe PDF Converter
1000
My Documents
1000

1070
     0
  0
LAYOUT
  5
22
102
{ACAD_XDICTIONARY
360
624
102
}
102
{ACAD_REACTORS
330
1A
102
}
330
1A
100
AcDbPlotSettings
  1

  2
none_device
  4
ISO_A4_(210.00_x_297.00_MM)
  6

 40
7.5
 41
20.0
 42
7.5
 43
20.0
 44
210.0
 45
297.0
 46
11.54999923706054
 47
-13.65000009536743
 48
0.0
 49
0.0
140
0.0
141
0.0
142
1.0
143
8.704084754739808
 70
 11952
 72
     1
 73
     0
 74
     0
  7
C:\Documents and Settings\Sae-woon Lim\Application Data\Autodesk\AutoCAD 2005\R16.1\enu\Plot Styles\Eboss.ctb
 75
     0
147
0.1148885871608098
148
0.0
149
0.0
100
AcDbLayout
  1
Model
 70
     1
 71
     0
 10
0.0
 20
0.0
 11
12.0
 21
9.0
 12
0.0
 22
0.0
 32
0.0
 14
0.0
 24
0.0
 34
0.0
 15
0.0
 25
0.0
 35
0.0
146
0.0
 13
0.0
 23
0.0
 33
0.0
 16
1.0
 26
0.0
 36
0.0
 17
0.0
 27
1.0
 37
0.0
 76
     0
330
1F
1001
ACAD_PSEXT
1000
None
1000
None
1000
Not applicable
1000
The layout will not be plotted unless a new plotter configuration name is selected.
1070
     0
  0
MLINESTYLE
  5
18
102
{ACAD_REACTORS
330
17
102
}
330
17
100
AcDbMlineStyle
  2
STANDARD
 70
     0
  3

 62
   256
 51
90.0
 52
90.0
 71
     2
 49
0.5
 62
   256
  6
BYLAYER
 49
-0.5
 62
   256
  6
BYLAYER
  0
ACDBPLACEHOLDER
  5
F
102
{ACAD_REACTORS
330
E
102
}
330
E
  0
ACAD_PROXY_OBJECT
  5
7F
102
{ACAD_REACTORS
330
7E
102
}
330
7E
100
AcDbProxyObject
 90
      499
 91
      504
 95
  4980761
 70
     0
 93
     1841
310
4214DD185B99185C9928000000000000F83F0000000000003E0FC00000000000004901028000000C1008070000C3001FDFF8000000C1003FBFF000000182007F7FE00000030400FEFFC00000060801FDFF8000000C1003FBFF000000182000000000000000C2020B0000001820100E000186003FBFF000000182007F7FE000
310
00030400FEFFC00000060801FDFF8000000C1003FBFF000000182007F7FE0000003040000000000000012404160000003040201C00030C007F7FE00000030400FEFFC00000060801FDFF8000000C1003FBFF000000182007F7FE00000030400FEFFC00000060805C
340
11
340
11
340
11
 94
        0
1001
ACAD
1000
AcRTDxfName
1000
TABLESTYLE
1000
AcRTDxfName
1000
TABLESTYLE
1000
AcRTDxfName
1000
TABLESTYLE
  0
XRECORD
  5
623
102
{ACAD_REACTORS
330
621
102
}
330
621
100
AcDbXrecord
280
     1
340
6B
  0
XRECORD
  5
622
102
{ACAD_REACTORS
330
621
102
}
330
621
100
AcDbXrecord
280
     1
340
6A
  0
DICTIONARYVAR
  5
84
102
{ACAD_REACTORS
330
5E
102
}
330
5E
100
DictionaryVariables
280
     0
  1
STANDARD
  0
DICTIONARYVAR
  5
5F
102
{ACAD_REACTORS
330
5E
102
}
330
5E
100
DictionaryVariables
280
     0
  1
2
  0
DICTIONARYVAR
  5
63
102
{ACAD_REACTORS
330
5E
102
}
330
5E
100
DictionaryVariables
280
     0
  1
1
  0
DICTIONARYVAR
  5
606
102
{ACAD_REACTORS
330
5E
102
}
330
5E
100
DictionaryVariables
280
     0
  1

  0
DICTIONARY
  5
3BC
330
3BB
100
AcDbDictionary
280
     1
281
     1
  3
ACAD_XREC_ROUNDTRIP
360
62A
  3
ADSK_XREC_LAYOUTTHUMBNAIL
360
3BD
  0
DICTIONARY
  5
624
330
22
100
AcDbDictionary
280
     1
281
     1
  3
ACAD_XREC_ROUNDTRIP
360
625
  0
XRECORD
  5
62A
102
{ACAD_REACTORS
330
3BC
102
}
330
3BC
100
AcDbXrecord
280
     1
102
SHADEPLOT
 70
     1
102
SHADEPLOTRESLEVEL
 70
     2
102
SHADEPLOTCUSTOMDPI
 70
   300
  0
XRECORD
  5
3BD
102
{ACAD_REACTORS
330
3BC
102
}
330
3BC
100
AcDbXrecord
280
     1
310
28000000630000008C0000000100080000000000B036000000000000000000000001000000000000FFFFFF0000000000FFFFFF000000000000000000000000000000000000000000000000000000000000000000330000006600000099000000CC000000FF00000000330000333300006633000099330000CC330000FF3300
310
0000660000336600006666000099660000CC660000FF66000000990000339900006699000099990000CC990000FF99000000CC000033CC000066CC000099CC0000CCCC0000FFCC000000FF000033FF000066FF000099FF0000CCFF0000FFFF000000003300330033006600330099003300CC003300FF003300003333003333
310
33006633330099333300CC333300FF33330000663300336633006666330099663300CC663300FF66330000993300339933006699330099993300CC993300FF99330000CC330033CC330066CC330099CC3300CCCC3300FFCC330000FF330033FF330066FF330099FF3300CCFF3300FFFF330000006600330066006600660099
310
006600CC006600FF00660000336600333366006633660099336600CC336600FF33660000666600336666006666660099666600CC666600FF66660000996600339966006699660099996600CC996600FF99660000CC660033CC660066CC660099CC6600CCCC6600FFCC660000FF660033FF660066FF660099FF6600CCFF6600
310
FFFF660000009900330099006600990099009900CC009900FF00990000339900333399006633990099339900CC339900FF33990000669900336699006666990099669900CC669900FF66990000999900339999006699990099999900CC999900FF99990000CC990033CC990066CC990099CC9900CCCC9900FFCC990000FF99
310
0033FF990066FF990099FF9900CCFF9900FFFF99000000CC003300CC006600CC009900CC00CC00CC00FF00CC000033CC003333CC006633CC009933CC00CC33CC00FF33CC000066CC003366CC006666CC009966CC00CC66CC00FF66CC000099CC003399CC006699CC009999CC00CC99CC00FF99CC0000CCCC0033CCCC0066CC
310
CC0099CCCC00CCCCCC00FFCCCC0000FFCC0033FFCC0066FFCC0099FFCC00CCFFCC00FFFFCC000000FF003300FF006600FF009900FF00CC00FF00FF00FF000033FF003333FF006633FF009933FF00CC33FF00FF33FF000066FF003366FF006666FF009966FF00CC66FF00FF66FF000099FF003399FF006699FF009999FF00CC
310
99FF00FF99FF0000CCFF0033CCFF0066CCFF0099CCFF00CCCCFF00FFCCFF0000FFFF0033FFFF0066FFFF0099FFFF00CCFFFF00FFFFFF00000000000D0D0D001A1A1A00282828003535350043434300505050005D5D5D006B6B6B00787878008686860093939300A1A1A100AEAEAE00BBBBBB00C9C9C900D6D6D600E4E4E400
310
F1F1F100FFFFFF0000000000000000000000000000000000000000000000000000000000000000000000000000000000E2E2E2E2E2E2E2E2E2E2E2E2E2E2E2E2E2E2E2E2E2E2E2E2E2E2E2E2E2E2E2E2E2E2E2E2E2E2E2E2E2E2E2E2E2E2E2E2E2E2E2E2E2E2E2E2E2E2E2E2E2E2E2E2E2E2E2E2E2E2E2E2E2E2E2E2E2E2E2
310
E2E2E2E2E2E2E2E2E2E2E2E2E2E2E2E2E2E2E2E200E2F5F5F5F5F5F5F5F5F5F5F5F5F5F5F5F5F5F5F5F5F5F5F5F5F5F5F5F5F5F5F5F5F5F5F5F5F5F5F5F5F5F5F5F5F5F5F5F5F5F5F5F5F5F5F5F5F5F5F5F5F5F5F5F5F5F5F5F5F5F5F5F5F5F5F5F5F5F5F5F5F5F5F5F5F5F5F5F5F5F5F5F5F5F5F5F5F5E200E2E2E2E2E2E2
310
E2E2E2F5F5F5F5F5F5F5F5F5E2E2E2E2E2E2E2E2E2E2E2E2E2E2E2F5F5F5F5F5F5F5F5F5E2E2E2E2E2E2E2E2E2E2E2E2E2E2E2F5F5F5F5F5F5F5F5F5E2E2E2E2E2E2E2E2E2E2E2E2E2E2E2F5F5F5F5F5F5F5F5F5E2E2E2E2E2E2E2E2E200E2E2F5F5F5F5F5F5F5F5F5F5F5F5F5F5F5F5F5F5F5F5F5F5F5F5F5F5F5F5F5F5F5
310
F5F5F5F5F5F5F5F5F5F5F5F5F5F5F5F5F5F5F5F5F5F5F5F5F5F5F5F5F5F5F5F5F5F5F5F5F5F5F5F5F5F5F5F5F5F5F5F5F5F5F5F5F5F5F5F5F5F5F5F5F5F5F5F5E2E200E2E2F5F5F5F5F5F5F5F5F5F5F5F5F5F5F5F5F5F5F5F5F5F5F5F5F5F5F5F5F5F5F5F5F5F5F5F5F5F5F5F5F5F5F5F5F5F5F5F5F5F5F5F5F5F5F5F5F5F5
310
F5F5F5F5F5F5F5F5F5F5F5F5F5F5F5F5F5F5F5F5F5F5F5F5F5F5F5F5F5F5F5F5F5F5F5F5F5E2E200E2E2F5F5F5F5F5F5F5F5F5F5F5F5F5F5F5F5F5F5F5F5F5F5F5F5F5F5F5F5F5F5F5F5F5F5F5F5F5F5F5F5F5F5F5F5F5F5F5F5F5F5F5F5F5F5F5F5F5F5F5F5F5F5F5F5F5F5F5F5F5F5F5F5F5F5F5F5F5F5F5F5F5F5F5F5F5
310
F5F5F5F5F5F5F5F5F5F5E2E200E2E2F5F5F5F5F5F5F5F5F5F5F5F5F5F5F5F5F5F5F5F5F5F5F5F5F5F5F5F5F5F5F5F5F5F5F5F5F5F5F5F5F5F5F5F5F5F5F5F5F5F5F5F5F5F5F5F5F5F5F5F5F5F5F5F5F5F5F5F5F5F5F5F5F5F5F5F5F5F5F5F5F5F5F5F5F5F5F5F5F5F5F5F5F5F5F5E2E200E2E2F5F5F5F5E2E2E2E2E2E2E2E2
310
E2E2E2E2E2E2E2E2E2E2E2E2E2E2E2E2E2E2E2E2E2E2E2E2E2E2E2E2E2E2E2E2E2E2E2E2E2E2E2E2E2E2E2E2E2E2E2E2E2E2E2E2E2E2E2E2E2E2E2E2E2E2E2E2E2E2E2E2E2E2E2E2E2E2E2E2E2E2E2F5F5F5F5E2E200E2E2F5F5F5F5E2E2E2E2E2E2E2E2E2E2E2E2E2E2E2E2E2E2E2E2E2E2E2E2E2E2E2E2E2E2E2E2E2E2E2
310
E2E2E2E2E2E2E2E2E2E2F5F5F5F5F5F5F5F5F5F5E2E2E2E2E2E2E2E2E2E2E2E2E2E2E2E2F5F5E2E2E2E2E2E2E2E2E2E2E2F5F5E2F5F5F5F5E2E200E2E2F5F5F5F5E2E2E2E2E2E2E2E2E2E2E2E2E2E2E2E2E2E2E2E2E2E2E2E2E2E2E2E2E2E2E2E2E2E2E2E2E2E2E2E2F5F5F5F5F5F5F5F5F5F5F5F5F5F5F5E2E2E2E2E2E2E2
310
E2E2E2E2E2E2E2E2E2F5F5E2E2E2E2E2E2E2E2E2E2E2F5F5E2F5F5F5F5E2E200E2E2F5F5F5F5E2E2E2E2E2E2E2E2E2E2E2E2E2E2E2E2E2E2E2E2E2E2E2E2E2E2E2F5F5F5F5F5F5F5F5F5F5F5F5F5F5F5F5F5F5F5F5F5F5F5F5F5F5F5F5E2E2E2E2E2E2E2E2F5F5E2E2E2E2E2E2E2F5E2E2E2E2E2E2E2E2E2E2F5F5F5E2F5F5
310
F5F5E2E200E2F5F5F5F5F5E2E2E2E2E2E2E2E2E2E2E2E2E2E2E2E2E2E2E2E2E2E2E2E2E2E2E2E2E2E2E2E2E2E2F5F5F5F5F5F5F5F5F5F5F5F5F5F5F5F5F5F5F5F5F5E2F5E2E2E2E2E2E2E2E2E2E2E2E2E2E2E2E2E2E2E2E2E2F5F5F5F5F5F5F5F5E2F5F5F5F5F5E200E2F5F5F5F5F5E2F5F5F5F5F5F5F5F5F5F5F5F5F5F5F5
310
F5F5F5F5F5F5F5F5F5F5F5F5F5F5F5F5F5F5F5F5F5F5F5F5F5F5F5F5F5F5F5F5F5F5F5F5F5F5F5E2F5E2E2E2E2E2E2E2E2E2E2E2E2E2E2E2E2E2E2E2E2E2F5F5F5F5F5F5F5F5E2F5F5F5F5F5E200E2F5F5F5F5F5E2E2E2E2E2E2E2E2E2E2E2E2E2E2E2E2E2E2E2E2E2E2E2E2E2E2E2E2E2E2E2E2E2E2E2E2E2E2E2E2E2E2E2
310
E2E2E2E2E2E2E2E2E2E2E2E2E2E2E2E2E2E2E2E2E2E2E2E2E2E2E2E2E2E2E2E2E2E2E2E2E2E2E2E2E2E2E2E2F5F5F5F5F5E200E2F5F5F5F5F5E2F5F5F5F5F5F5F5F5F5F5F5F5F5F5E2E2E2E2E2E2E2E2E2E2E2E2E2E2E2E2E2E2E2E2E2E2E2E2E2E2E2E2F5F5F5F5F5F5F5F5F5F5F5F5F5F5F5F5F5F5F5F5F5F5F5F5E2E2E2
310
F5F5F5F5F5F5F5F5F5F5F5F5F5F5F5F5E2F5F5F5F5F5E200E2F5F5F5F5F5E2E2E2E2E2E2E2E2E2E2E2E2E2E2E2E2F5F5F5F5F5F5F5F5F5F5F5F5F5F5F5F5F5F5F5F5F5F5F5F5F5F5F5F5F5F5F5F5F5F5F5F5F5F5F5F5F5F5F5F5F5F5F5F5F5F5F5E2F5F5F5F5F5F5F5F5F5F5F5F5F5F5F5F5F5F5E2F5F5F5F5F5E200E2F5F5
310
F5F5F5E2E2000000000000000000000000E2E2E2E2E2E2E2E2F5F5F5F5F5F5F5F5F5F5F5F5F5F5F5F5F5F5F5F5F5F5F5F5F5F5F5F5F5F5F5F5F5F5F5F5F5F5F5F5F5F5F5F5F5E2E2E2F5F5F5F5F5F5F5F5F5F5F5F5F5F5F5F5E2F5F5F5F5F5E200E2F5F5F5F5F5E2E2000000000000000000000000E2E2E2E2E2E2E2E2E2E2
310
E2E2E2E2E2E2E2E2E2E2E2E2E2E2E2E2E2E2E2E2E2E2E2E2E2E2E2E2E2E2E2E2E2E2E2E2E2E2E2E2E2E2E2E2E2E2E2E2E2E2E2E2E2E2E2E2E2E2E2E2E2E2E2F5F5F5F5F5E200E2F5F5F5F5F5E2E2000000000000000000000000E2E2E2E2E2E2E2E2E2E2E2E2E2E2E2E2E2E2E2E2F5F5F5F5E2E2E2E2E2E2F5F5F5E2F5E2E2
310
E2E2E2E2F5F5F5F5F5F5F5F5F5F5F5F5E2E2E2E2E2E2E2E2E2E2F5F5F5F5F5F5F5F5F5E2F5F5F5F5F5E200E2F5F5F5F5F5E2E2E2E2E2E2E2E2E2E2E2E2E2E2E2E2F5F5F5F5F5F5F5F5F5F5F5F5F5F5F5F5F5F5F5F5F5F5E2F5F5F5F5F5F5F5F5E2F5F5F5F5F5F5F5F5F5F5F5F5F5F5F5F5F5F5F5E2F5F5F5F5F5F5F5F5F5F5
310
F5F5F5F5F5F5F5F5E2F5F5F5F5F5E200E2F5F5F5F5F5E2F5F5F5F5F5F5F5F5F5F5F5F5F5F5E2E2E2E2E2F5F5F5F5F5F5F5F5F5F5F5F5F5F5F5F5F5F5E2E2E2F5F5F5F5F5F5E2E2E2E2E2F5F5F5F5F5F5F5F5F5F5F5F5F5F5F5E2E2E2F5F5F5F5F5F5F5F5F5F5F5F5F5F5F5F5E2F5F5F5F5F5E200E2E2F5F5F5F5E2E2E2E2E2
310
E2E2E2E2E2E2E2E2E2E2E2E2E2E2E2E2E2E2E2E2E2E2E2E2E2E2E2E2E2E2E2E2E2E2E2E2E2E2E2E2E2E2E2E2E2E2E2E2E2E2E2E2E2E2E2E2E2E2E2E2E2E2E2E2E2E2E2E2E2E2E2E2E2E2E2E2E2E2E2E2E2E2F5F5F5F5E2E200E2E2F5F5F5F5E2F5F5F5F5F5F5F5F5F5F5F5F5F5F5F5F5F5F5F5F5F5F5F5F5F5F5F5F5F5F5F5
310
F5F5F5F5F5F5F5F5F5F5F5F5F5F5F5F5F5F5F5F5F5F5F5F5F5F5F5F5F5F5F5F5F5F5F5F5F5F5F5F5F5F5F5F5F5F5F5F5F5F5F5F5F5F5E2F5F5F5F5E2E200E2E2F5F5F5F5E2F5F5F5F5F5F5F5F5F5F5F5F5F5F5F5F5F5F5F5F5F5F5F5F5F5F5F5F5F5F5F5F5F5F5F5F5F5F5F5F5F5F5E2E2E2E2E2E2E2E2E2E2E2F5F5F5F5F5
310
F5F5F5F5F5F5F5F5F5F5F5F5F5F5F5F5F5F5F5F5F5F5F5F5F5F5F5E2F5F5F5F5E2E200E2E2F5F5F5F5E2F5F5F5F5F5F5F5F5F5F5F5F5F5F5F5F5F5F5F5F5F5F5F5F5F5F5F5F5F5F5F5F5F5F5F5F5F5F5F5F5F5F5E2E2E2E2E2E2E2E2E2E2E2F5F5F5F5F5F5F5F5F5F5F5F5F5F5F5F5F5F5F5F5F5F5F5F5F5F5F5F5F5F5F5F5
310
E2F5F5F5F5E2E200E2E2F5F5F5F5E2F5F5F5F5F5F5F5F5F5F5F5F5F5F5F5F5F5F5F5F5F5F5F5F5F5F5F5F5F5F5F5F5F5F5F5F5F5F5F5F5F5F5E2E2E2E2E2E2E2E2E2E2E2E2E2E2E2E2E2E2E2E2E2E2E2E2E2E2E2F5F5F5F5F5F5F5F5F5F5F5F5F5F5F5F5E2F5F5F5F5E2E200E2E2F5F5F5F5E2F5F5F5F5F5F5F5F5F5F5F5F5
310
F5F5F5F5F5F5F5F5F5F5F5F5F5F5F5F5F5F5F5F5F5F5F5F5F5F5F5F5F5F5E2E2E2E2E2E2E2E2E2E2E2E2E2E2E2E2E2E2E2E2E2E2E2E2E2E2E2F5F5F5F5F5F5F5F5F5F5F5F5F5F5F5F5E2F5F5F5F5E2E200E2E2F5F5F5F5E2F5F5F5F5F5F5F5F5F5F5F5F5F5F5F5F5F5F5F5F5F5F5F5F5F5F5F5F5F5F5F5F5F5F5F5F5F5F5F5
310
F5F5F5E2E2E2E2E2E2E2E2E2E2E2E2E2E2E2E2E2E2E2E2E2E2E2E2E2E2E2E2E2F5F5F5F5F5F5F5F5F5F5F5F5F5F5E2F5F5F5F5E2E200E2E2F5F5F5F5E2F5F5F5F5F5F5F5F5F5F5F5F5F5F5F5F5F5F5F5F5F5F5F576F5F5F5F5F5F5F5F5F5F5F5F5F5F5F5F5F5F5F5F5F5F5F5F5F5F5F5F5F5F5F5F5F5F5F5F5F5F5F5F5F5F5
310
F5F5F5F5F5F5F5F5F5F5F5F5F5F5F5F5F5F5F5E2F5F5F5F5E2E200E2E2F5F5F5F5E2F5F5F5F5F5F5F5F5F5F5F5F5F5F5F5F5F5F5F5F5F5F5F576F5F5F5F5F5F5F5F5F5F5F5F5F5F5F5F5F5F5E2E2E2E2F5F5F5F5F5F5F5F5F5F5F5F5F5F5F5F5F5F5F5F5F5F5F5F5F5F5F5F5F5F5F5F5F5F5F5F5F5F5F5E2F5F5F5F5E2E200
310
E2E2F5F5F5F5E2F5F5F5F5F5F5F5F5F57676E276E276767676767676767676767676767676767676767676767676F5F5F5E2E2E2E2F5F5F5F5F5F5F5F5F5F5F5F5F5F5F5F5F5F5F5F5F5F5F5F5F5F5F5F5F5F5F5F5F5F5F5F5F5F5F5E2F5F5F5F5E2E2CBE2E2F5F5F5F5E2F5F5F5F5F5F5F5F5F5F5F5E2F5E2F5F5F5F5F5F5
310
F5F5F576F5F5F5F5F5F5F5F5F5F5E2E2F5F5F5F5F5F5E2E2E2E2E2E2E2E2E2E2E2E2E2E2E2E2E2E2E2E2F5F5F5F5F5F5F5F5F5F5F5F5F5F5F5F576F5F5F5F5F5F5E2F5F5F5F5E2E240E2E2F5F5F5F5E2F5F5F5F5F5F5F5F5F5F5F5E2F5E2F5F5F5F5F5F5F5F5F5F5F5F5F5F5F5F5F5F5F5F5E2E2F5F5F5F5F5F5E2E2E2E2E2
310
E2E2E2E2E2E2E2E2E2E2E2E2E2E2E2F5F5F5F5F5F5F5F5F5F5F5F5F5F5F5F576F5F5F5F5F5F5E2F5F5F5F5E2E200E2E2F5F5F5F5E2F5F5F5F5F5F5F5F5F5F5F5E2F5E2F5F5F5F5F5F5F5F5F5F5F5F5F5F5F5F5F5F5F5F5E2E2F5F5F5F5F5F5E2E2E2E2E2E2E2E2E2E2E2E2E2E2E2E2E2E2E2F5F5F5F5F5F5F5F5F5F5F5F5F5
310
F5F5F5F576F5F5F5F5F5F5E2F5F5F5F5E2E200E2E2F5F5F5F5E2F5F5F5F5F5F5F5F5F5F5F5E2F5E2F5F5F5F5F5F5F5F5F5F5F5F5F5F5F5F5F5F5F5F5E2E2F5F5F5F5F5F5F5F5F5F5F5F5F5F5F5F5F5F5F5F5F5F5F5F5F5F5F5F5F5F5F5F5F5F5F5F5F5F5F5F5F5F576F5F5F5F5F5F5E2F5F5F5F5E2E2ABE2E2F5F5F5F5E2F5
310
F5F5F5F5F5F5F5F5F5F5E2F5E2F5F5F5F5F5F5F5F5F5F5F5F5F5F5F5F5F5F5F5F5E2E2F5F5E2E2F5F5F5F5F5F5F5F5F5F5F5F5F5F5F5F5F5F5F5F5F5F5F5F5F5F5F5F5F5F5F5F5F5F5F5F5F5E276F5F5F5F5F5F5E2F5F5F5F5E2E240E2E2F5F5F5F5E2F5F5F5F5F5F5F5F5F5F5F5E2F5E2F5F5F5F5F5F5F5F5F5F5F5F5F5F5
310
F5F5F5F5F5F5E2E2E2E2E2E2E2F5E2E2E2E2E2E2E2F5F5F5F5F5F5F5F5F5F5F5F5F5F5F5F5F5F5F5F5F5F5F5F5F5E2E2E2E276F5F5F5F5F5F5E2F5F5F5F5E2E200E2E2F5F5F5F5E2F5F5F5F5F5F5F5F5F5F5F5E2F5E2F5F5F5F5F5F5F5F5F5F5F5F5F5F5F5F5F5F5F5F5E2E2E2E2E2E2E2E2E2E2E2E2E2E2E2E2E2E2E2E2E2
310
E2E2E2E2E2F5F5F5F5F5F5F5F5F5F5F5F5E2E2E2E2E2F576F5F5F5F5F5F5E2F5F5F5F5E2E200E2F5F5F5F5F5E2F5F5F5F5F5F5F5F5F5F5F5E2F5E2F5F5F5F5F5F5F5F5F5F5F5F5F5F5F5F5F5F5F5F5E2E2E2F5E2E2F5E2E2E2E2E2E2E2E2E2E2E2E2E2E2E2E2E2E2E2F5F5F5F5F5F5F5F5F5E2E2E2E2E2F5F5F5F576F5F5F5
310
F5F5F5E2F5F5F5F5F5E200E2F5F5F5F5F5E2F5F5F5F5F5F5F5F5F5F5F5E2F5E2F5F5F5F5F5F5F5F5F5F5F5F5F5F5F5F5F5F5F5F5E2E2E2E2E2E2E2E2E2E2E2E2E2E2E2E2E2E2E2E2E2E2E2E2E2E2E2E2F5F5F5F5E2E2E2E2E2E2F5F5F5F5F5F576F5F5F5F5F5F5E2F5F5F5F5F5E200E2F5F5F5F5F5E2F5F5F5F5F5F5F5F5F5
310
F5F5E2F5E2F5F5F5F5F5F5F5F5F5F5F5F5F5F5F5F5F5F5F5F5E2E2E2E2E2E2E2F5F5F5F5F5F5F5F5F5F5F5F5F5F5F5F5F5F5F5F5F5F5E2E2E2E2E2E2F5F5F5F5F5F5F5F5F576F5F5F5F5F5F5E2F5F5F5F5F5E200E2F5F5F5F5F5E2F5F5F5F5F5F5F5F5F5F5F5E2F5E2F5F5F5F5F5F5F5F5F5F5F5F5F5F5F5F5F5F5F5F5E2E2
310
F5F5E2E2F5F5F5F5F5F5F5F5F5F5F5F5F5F5F5F5F5F5F5F5F5E2E2E2E2E2F5F5F5F5F5F5F5F5F5F5F5F576F5F5F5F5F5F5E2F5F5F5F5F5E200E2F5F5F5F5F5E2F5F5F5F5F5F5F5F5F5F5F5E2F5E2F5F5F5F5F5F5F5F5F5F5F5F5F5F5F5F5F5F5F5F5E2E2F5F5F5F5F5F5F5F5F5F5F5F5F5F5F5F5F5F5F5F5F5F5E2E2E2E2E2
310
F5F5F5F5F5F5F5F5F5F5F5F5F5F5F576F5F5F5F5F5F5E2F5F5F5F5F5E200E2F5F5F5F5F5E2F5F5F5F5F5F5F5F5F5F5F5E2F5E2E2E2E2E2E2E2E2E2E2E2E2E2E2E2E2E2E2E2E2E2CAE2F5F5F5F5F5F5F5F5F5F5F5F5F5F5F5F5F5F5F5E2E2E2E2E2E2F5F5F5F5F5F5F5F5F5F5F5F5F5F5F5F5F576F5F5F5F5F5F5E2F5F5F5F5
310
F5E200E2F5F5F5F5F5E2F5F5F5F5F5F5F5F5F5F5F5E2F5E2CACAF5F5F5F5F5F5F5F5F5F5F5F5F5F5F5F5CACAE2E2F5F5F5F5F5F5F5F5F5F5F5F5F5F5F5F5E2E2E2E2E2E2F5F5F5F5F5F5F5F5F5F5F5F5F5F5F5F5F5F5F5F576F5F5F5F5F5F5E2F5F5F5F5F5E200E2F5F5F5F5F5E2F5F5F5F5F5F5F5F5F5F5F5E2F5E2F5F5CA
310
CAF5F5F5F5F5F5F5F5F5F5F5F5CACAF5F5E2E2F5F5F5F5F5F5F5F5F5F5F5F5F5F5E2E2E2E2E2F5F5F5F5F5F5F5F5F5F5F5F5F5F5F5F5F5F5F5F5F5F5F576F5F5F5F5F5F5E2F5F5F5F5F5E200E2F5F5F5F5F5E2F5F5F5F5F5F5F5F5F5F5F5E2F5E2F5F5F5F5CACAF5F5F5F5F5F5F5F5CACAF5F5F5F5E2E2F5F5F5F5F5F5F5F5
310
F5F5F5E2E2E2E2E2F5F5F5F5F5F5F5F5F5F5F5F5F5F5F5F5F5F5F5F5F5F5F5F5F5F576F5F5F5F5F5F5E2F5F5F5F5F5E200E2F5F5F5F5F5E2F5F5F5F5F5F5F5F5F5F5F5E2F5E2F5F5F5F5F5F5CACAF5F5F5F5CACAF5F5F5F5F5F5E2E2F5F5F5F5F5F5F5F5E2E2E2E2E2E2F5F5F5F5F5F5F5F5F5F5F5F5F5F5F5F5F5F5F5F5F5
310
F5F5F5F5F5F5F576F5F5F5F5F5F5E2F5F5F5F5F5E200E2E2F5F5F5F5E2F5F5F5F5F5F5F5F5F5F5F5E2F5E2F5F5F5F5F5F5F5F5CACACACAF5F5F5F5F5F5F5F5E2E2F5F5F5F5F5E2E2E2E2E2E2F5F5F5F5F5F5F5F5F5F5F5F5F5F5F5F5F5F5F5F5F5F5F5F5F5F5F5F5F5F5F576F5F5F5F5F5F5E2F5F5F5F5E2E200E2E2F5F5F5
310
F5E2F5F5F5F5F5F5F5F5F5F5F5E2F5E2F5F5F5F5F5F5F5F5CACACACAF5F5F5F5F5F5F5F5E2E2F5F5F5E2E2E2E2E2F5F5F5F5F5F5F5F5F5F5F5F5F5F5F5F5F5F5F5F5F5F5F5F5F5F5F5F5F5F5F5F576767676F5F5F5F5F5E2F5F5F5F5E2E200E2E2F5F5F5F5E2F5F576F5F5F5F5F5F5F5F5E2F5E2F5F5F5F5F5F5CACAF5F5F5
310
F5CACAF5F5F5F5F5F5E2E2E2E2E2E2E2F5F5F5F5F5F5F5F5F5F5F5F5F5F5F5F5F5F5F5F5F5F5F5F5F5F5F5F5F5F5F5F5F5F5F5F5F576F5F5F5F5F5F5E2F5F5F5F5E2E200E2E2F5F5F5F5E2F5F576F5F5F5F5F5F5F5F5E2F5E2F5F5F5F5CACAF5F5F5F5F5F5F5F5CACAF5F5F5F5E2E2E2E2E2F5F5F5F5F5F5F5F5F5F5F5F5F5
310
F5F5F5F5F5F5F5F5F5F5F5F5F5F5F5F5F5F5F5F5F5F5F5F5F5F576F5F5F5F5F5F5E2F5F5F5F5E2E200E2E2F5F5F5F5E2F5F576E2E2E2E2E2E2E2E2E2E2E2F5F5CACAF5F5F5F5F5F5F5F5F5F5F5F5CACAF5F5E2E2F5F5F5F5F5F5F5F5F5F5F5F5F5F5F5F5F5F5F5F5F5F5F5F5F5F5F5F5F5F5F5F5F5F5F5F5F5F5F5F5F5F576
310
F5F5F5F5F5F5E2F5F5F5F5E2E200E2E2F5F5F5F5E2F5F576F5F5F5F5F5F5F5F5F5F5E2CACAF5F5F5F5F5F5F5F5F5F5F5F5F5F5F5F5CACAE2F5F5F5F5F5F5F5F5F5F5F5F5F5F5F5F5F5F5F5F5F5F5F5F5F5F5F5F5F5F5F5F5F5F5F5F5F5F5F5F5F5F5F576F5F5F5F5F5F5E2F5F5F5F5E2E200E2E2F5F5F5F5E2F5F576E2E2E2
310
E2E2E2E2E2E2E2CAE2E2E2E2E2E2E2E2E2E2E2E2E2E2E2E2E2E2E2E2CAF5F5F5F5F5F5F5F5F5F5F5F5F5F5F5F5F5F5F5F5F5E2E2E2E2F5F5F5F5F5F5F5F5F5F5F5F5F5F5F5F5F5F576F5F5F5F5F5F5E2F5F5F5F5E2E200E2E2F5F5F5F5E2F5F576F5F5F5F5F5F5F5F5F5F5F5F5F5F5F5F5F5F5F5F5E2CAF5F5F5F5F5F5F5F5
310
CAE2F5F5F5F5F5F5F5F5F5F5F5F5F5F5F5F5F5E2E2E2E2E2F5F5F5F5F5F5F5F5F5F5F5F5F5F5F5F5F5F5F5F5F576F5F5F5F5F5F5E2F5F5F5F5E2E200E2E2F5F5F5F5E2F5F576F5F5F5F5F5F5F5F5F5F5F5F5F5F5F5F5F5F5F5F5E2CAF5F5F5F5F5F5F5F5CAE2F5F5F5F5F5F5F5F5F5F5F5F5F5F5F5F5F5E2E2E2F5F5F5F5F5
310
F5F5F5F5F5F5F5F5F5F5F5F5F5F5F5F5F5F576F5F5F5F5F5F5E2F5F5F5F5E2E200E2E2F5F5F5F5E2F5F576F5F5F5F5F5F5F5F5F5F5F5F5F5F5F5F5F5F5F5F5E2F5CAF5F5F5F5F5F5CAF5E2F5F5F5F5F5F5F5F5F5F5F5F5F5F5F5F5F5F5F5F5F5F5F5F5F5F5F5F5F5F5F5F5F5F5F5F5F5F5F5F5F5F5F576F5F5F5F5F5F5E2F5
310
F5F5F5E2E200E2E2F5F5F5F5E2F5F576F5F5F5F5F5F5F5F5F5F5F5F5F5F5F5F5F5F5F5F5E2F5CAF5F5F5F5F5F5CAF5E2F5F5F5F5F5F5F5F5F5F5F5F5E2E2F5F5F5F5F5F5F5F5F5F5F5F5F5F5F5F5F5F5F5F5F5F5F5F5F5F5F5F5F576F5F5F5F5F5F5E2F5F5F5F5E2E200E2E2F5F5F5F5E2F5F576F5F5F5F5F5F5F5F5F5F5F5
310
F5F5F5F5F5F5F5F5F5E2F5F5CAF5F5F5F5CAF5F5E2F5F5F5F5F5F5F5F5F5F5E2E2F5E2F5F5F5F5F5F5F5F5F5F5F5F5F5F5F5F5E2E2E2E2E2E2F5F5F5F5F5F5E276F5F5F5F5F5F5E2F5F5F5F5E2E200E2E2F5F5F5F5E2F5F576F5F5F5F5F5F5F5F5F5F5F5F5F5F5F5F5F5F5F5F5E2F5F5CAF5F5F5F5CAF5F5E2F5F57676F5F5
310
F5E2E2E2F5F5F5F5E2F5F5F5F5F5F5F5F5F5F5F5F5F5F57676E2E2E2E2E2F5F5CAE2E2E2F576F5F5F5F5F5F5E2F5F5F5F5E2E200E2E2F5F5F5F5E2F5F576F5F5F5F5F5F5F5F5F5F5F5F5F5F5F5F5F5F5F5F5E2F5F5F5CAF5F5CAF5F576767676F576F5E2E2F5F5F5F5F5F5F5E2F5F5F5F5F5F5F5F5F5F5F5F5F5F576F5F5F5
310
F5F5F5F5E2E2CACAF5F576F5F5F5F5F5F5E2F5F5F5F5E2E200E2E2F5F5F5F5E2F5F576F5F5F5F5F5F5F5F5F5F5F5F5F5F5F5F5F5F5F5F5E2F5F5F5CAF5F5CAF5F57676F5F5F576CAF5F5F5F5F5F5F5F5F5F5E2F5F5F5F5F5F5F5F5F5F5F5F5F576F5F5F5F5CACAE2F5F5F5CACACACAF5F5F5F5F5F5E2F5F5F5F5E2E200E2E2
310
F5F5F5F5E2F5F576F5F5F5F5F5F5F5F5F5F5F5F5F5F5F5F5F5F5F5F5E2F5F5F5F5CACAF5F5F5F576F5F5F5E2F5CACAF5F5F5F5F5F5F5F5E2F5F5F5F5F5F5F5F5F5F5F5F5F576F5E2E2E2F5CACACAF5E2CA28CACAF5F5F5F5F5F5E2F5F5F5F5E2E200E2E2F5F5F5F5E2F5F576F5F5F5F5F5F5F5F5F5F5F5F5F5F5F5F5F5F5F5
310
F5E2F5F5F5F5CACAF5F5F5F5E2F5F5F5F5E2F5F5CACAF5F5F5F5F5F5E2F5F5F5F5F5F5F5F5F5F5F5F5E276CACAF5F5F5F5F5CACACACACACACAF5F5F5F5F5F5E2F5F5F5F5E2E200E2F5F5F5F5F5E276767676F5F5F5F5F5F5F5F5F5F5F5F5F5F5F5F5F5F5F5E2F5F5F5F5CACAF5F5F5F5E2F5F5F5F5E2F5F5F5F5CACACAF5F5
310
F5F5E2F5F5F5F5F5F5F5F5CAE2E2F576F5F5CACACACAE2CACACACACAF576F5F5F5F5F5F5E2F5F5F5F5F5E200E2F5F5F5F5F5E2F57676F5F5F5F5F5F5F5F5F5F5F5F5F5F5F5F5F5F5F5F5E2F5F5F5F5CACAF5F5F5F5E2F5F5F5F5F5E2F5F5F5F5F5F5CACAF5F5E2F5F5F5F5F5F5E2E2E2CACAF576F5E2CAE2CAE2E2E2CACAF5
310
F5F576F5F5F5F5F5F5E2F5F5F5F5F5E200E2F5F5F5F5F5E2F5F576F5F5F5F5F5F5F5F5F5F5F5F5F5F5F5F5F5F5F5F5E2F5F5F5CAF5F5CAF5F5F5E2F5F5F5F5F5E2F5F5F5F5F5F5F5F5CACAF5E2F5F5E2CAE2F5F5F5F5F5CA76CAE2CAE2E2E2CAF5F5F5F5F5F5F5F5F5F5F5F5F5E2F5F5F5F5F5E200E2F5F5F5F5F5E2F5F576
310
F5F5F5F5F5F5F5F5F5F5F5F5F5F5F5F5F5F5F5F5E2F5F5F5CAF5F5CAF5F5F5E2F5F5F5F5F5E2F5F5F5F5F5F5F5F5F5F5CACAE2E2F5F5CACACACACACAE276E2E2E2E2F5F5F5F5F5F5F5F5F5F5F5F5F5F5F5F5E2F5F5F5F5F5E200E2F5F5F5F5F5E2F5F576F5F5F5F5F5F5F5F5F5F5F5F5F5F5F5F5F5F5F5F5E2F5F5CAF5F5F5
310
F5CAF5F5E2F5F5F5F5F5F5E2F5F5F5F5F5F5F5E2E2E2CACAF5F5F5F5E228E2CACAE2E2E2CAF5F5F5F5F5F5F5F5F5F5F5F5F5F5F5F5F5F5E2F5F5F5F5F5E200E2F5F5F5F5F5E2F5F576F5F5F5F5F5F5F5F5F5F5F5F5F5F5F5F5F5F5F5F5E2F5F5CAF5F5F5F5CAF5F5E2F5F5F5F5F5F5E2F5F5F5F5E2E2E2E2F5F5F5CACACACA
310
CACAE2E2E2E2CAF5F5F5F5F5F5F5F5F5F5F5F5F5F5F5F5F5F5F5F5F5E2F5F5F5F5F5E200E2F5F5F5F5F5E2F5F576F5F5F5F5F5F5F5F5F5F5F5F5F5F5F5F5F5F5F5F5E2F5CAF5F5F5F5F5F5CAF5E2F5F57676F5F5F5E2CAE2E2E2F5CACACAF5F5CACAE2CAE2E2E2E276F5F5F5F5F5F5F5F5F5F5F5F5F5F5F5F5F5F5F5F5F5F5
310
F5E2F5F5F5F5F5E200E2F5F5F5F5F5E2F5F576F5F5F5F5F5F5F5F5F5F5F5F5F5F5F5F5F5F5F5F5E2F5CAF5F5F5F5F5F5CAF57676767676F5F5E2E2E2CAF5F5F5F5F5E2CAE2ECE2E2E2E2F5F5F5F576F5F5F5F5F5F5F5F5F5F5F5F5F5F5F5F5F5F5F5F5F5F5E2F5F5F5F5F5E200E2F5F5F5F5F5E2F5F576F5F5F5F5F5F5F5F5
310
F5F5F5F5F5F5F5F5F5F5F5F5E2CAF5F5F5F5F5F5F5F5767676F5F576CAE2F5F5F5F5CACACACACAECE2E2E2E2CA28282828F5F576F5F5E2E2E2E2E2E2E2E2E2E2E2E2E2E2E2E2F5F5F5F5E2F5F5F5F5F5E200E2F5F5F5F5F5E2F5F576F5F5F5F5F5F5F5F5F5F5F5F5F5F5F5F5F5F5F5F5E2CAF5F5F5F5F5F5F5F5CA76F5E2E2
310
E2CACAF5F5F5F5CAE2CACAE2E2E2CA2828282828EC28280FF576F5E2E2E2E2E2E2E2E2E2E2E2E2E2E2E2E2F5F5F5F5E2F5F5F5F5F5E200E2E2F5F5F5F5E2F5F576E2CACAE2E2E2CAE2E2E2E2CAE2E2E2CACAE2E2E2CAE2E2E2E2CAE2E2E2CACA76E2F5F5F5E2F5CACACAE2CAE2E2E2E2282828282828280F0FE2E2CAF57676
310
76E2E2E2E2E2E2E2E2E2E2E2E2E2E2E2E2E2E2F5E2F5F5F5F5E2E200E2E2F5F5F5F5E2F5F576F5F5CAF5F5F5F5CAF5F5F5CAF5F5F5F5CAF5F5F5F5CAF5F5F5CAF5F5F5F5CA28F5F5F5F5F5E228CAE2E2E2E22828EC28282828280F0FE2E2E2F5F5F5F5F5E2E2E2E2E2E2E2E2E2E2E2E2E2E2E2E2E2E2F5F5E2F5F5F5F5E2E2
310
00E2E2F5F5F5F5E2F5F576F5F5CACAF5F5F5CACAF5F5F5CAF5F5F5CACAF5F5F5CAF5F5F5F5CAF5F5F5CACAF5F5F5F5F5E2E2E2E2CA28EC28282828280FE2E2E2E2ECF5F5F5F5F5F5F5E2E2E2E2E2E2E2E2E2E2E2E2E2E2E2E2E2E2F5F5E2F5F5F5F5E2E200E2E2F5F5F5F5E2F5F5CAF5F5F5CACAF5F5F5CACAF5F5F5CAF5F5
310
F5CACAF5F5F5CACAF5F5F5CAF5F5F528F5F5F5F5F5CACA28EC28282828280FECE2E2E2E2F57676F5F5F5F5F5F5F5F5F5F5F5F5F5F5F5F5F5F5F5F5F5F5F5F5F5F5F5E2F5F5F5F5E2E200E2E2F5F5F5F5E2F5F576CACACACAE2CACACACACACACACAE2CACACACAE2CACACACACACACACAE2CACACACAF5F5F5F5F5F5282828EC28
310
280FE2E2E2E2F5F5F5F5F576F5F5F5F5F5F5F5F5F5F5F5F5F5F5F5F5F5F5F5F5F5F5F5F5F5F5F5E2F5F5F5F5E2E200E2E2F5F5F5F5E2F5F576F5F5F5F5F5F5F5F5E2F5E2CACAF5F5F5F5F5F5F5F5F5F5F5F5F5F5F5F5CACAE2F5F5F5F52828EC28280FE2E2E2E2F5F5F5F5F5F5F5F5F576F5F5F5F5F5F5F5F5F5F5F5F5F5F5
310
F5F5F5F5F5F5F5F5F5F5F5F5E2F5F5F5F5E2E200E2E2F5F5F5F5E2F5F576F5F5F5F5F5F5F5F5E2F5E2F5F5CACAF5F5F5F5F5F5F5F5F5F5F5F5CACAF5F5E2F528282828280FE2E2E2E2E2F5F5F5F5F5F5F5F5F5F5F576F5F5F5F5F5F5F5F5F5F5F5F5F5F5F5F5F5F5F5F5F5F5F5F5F5F5E2F5F5F5F5E2E200E2E2F5F5F5F5E2
310
F5F5F5F5F5F5F5F5F5F5F5E2F5E2F5F5F5F5CACAF5F5F5F5F5F5F5F5CACAF5F5F5F528282828280FE2E2E2F5F5F5F5F5F5F5F5F5F5F5F5F5F5F5F576F5F5F5F5F5F5F5F5F5F5F5F5F5F5F5F5F5F5F5F5F5F5F5F5F5E2F5F5F5F5E2E200E2E2F5F5F5F5E2F5F5F5F5F5F5F5F5F5F5F5E2F5E2F5F5F5F5F5F5CACAF5F5F5F5CA
310
CAF5F5F5F5F5F528280FE2E2E2E2F5F5F5F5F5F5F5F5F5F5F5F5F5F5F5F5F5F5F57676767676E2E2E2E2E2E2E2E2E2E2E2E2E2E2E2E2E2F5F5F5E2F5F5F5F5E2E200E2E2F5F5F5F5E2F5F5F5F5F5F5F5F5F5F5F5E2F5E2F5F5F5F5F5F5767676767676767676767676767676E2E2E2F5F5F5F5F5F5F5F5F5F5F5F5F5F5F5F5
310
F5F5F5F5F5F5F5F5F5F5F5F5F5F5F5F5F5F5F5F5F5F5F5F5F5F5F5F5F5F5F5E2F5F5F5F5E2E200E2E2F5F5F5F5E2F5F5F5F5F5F5F5F5F5F5F5E2F5E2F5F5F5F5F5F5F576CACACACAF5F5F5F5F5F5F5F5E20FF5F5F5F5F5F5F5F5F5F5F5F5F5F5F5F5F5F5F5F5F5F5F5F5F5F5F5F5F5F5F5F5F5F5F5F5F5F5F5F5F5F5F5F5F5
310
F5F5F5F5E2F5F5F5F5E2E200E2E2F5F5F5F5E2F5F5F5F5F5F5F5F5F5F5F5E2F5E2F5F5F5F5F5F5CA76F5F5F5F5CACAF5F5F5F5F5F5E20FF5F5F5F5F5F5F5F5F5F5F5F5F5F5F5F5F5F5F5F5F5F5F5F5F5F5F5F5F5F5F5F5F5F5F5F5F5F5F5F5F5F5F5F5F5F5F5F5F5E2F5F5F5F5E2E200E2E2F5F5F5F5E2F5F5F5F5F5F5F5F5
310
F5F5F5E2F5E2F5F5F5F5CACAF576F5F5F5F5F5F5CACAF5F5F5F5E20FF5F5F5F5F5F5F5F5F5F5F5F5F5F5F5F5F5F5F5F5F5F5F5F5F5F5F5F5F5E2E2E2E2E2E2E2E2E2E2E2E2F5F5F5F5F5F5F5F5E2F5F5F5F5E2E200E2E2F5F5F5F5E2F5F5F5F5F5F5F5F5F5F5F5E2F5E2F5F5CACAF5F5F576F5F5F5F5F5F5F5F5CACAF5F5E2
310
0FF5F5F5F5F5F5F5F5F5F5F5F5F5F5F5F5F5F5F5F5F5F5F5F5F5F5F5F5F5E2E2E2E2E2E2E2E2E2E2E2E2F5F5F5F5F5F5F5F5E2F5F5F5F5E2E200E2E2F5F5F5F5E2F5F5F5F5F5F5F5F5F5F5F5E2F5E2CACAF5F5F5F5F576F5F5F5F5F5F5F5F5F5F5CACAE2767676767676767676767676767676767676767676767676767676
310
76767676E2E2E2E2E2E2E2E2E2E2E2E2E2E2E2E2E2F5F5E2F5F5F5F5E2E200E2E2F5F5F5F5E2F5F5F5F5F5F5F5F5F5F5F5E2F5CAE2E2E2E2E2E2E276E2E2E2E2E2E2E2E2E2E2E2E2CA0F76F5F5F5F5F5F5F5F5F5F5F5F5F5F5F5F5F5F5F5F5F5F5F5F5F5F5F5F5E2E2E2E2E2E2E2E2E2E2E2E2E2E2E2F5F5F5F5F5E2F5F5F5
310
F5E2E200E2E2F5F5F5F5E2F5F5F5F5F5F5F5F5F5F5F5E2F5E2F5F5F5F5F5F5F576F5F5F5F5F5F5F5F5F5F5F5F50F0FF5F5F5F5F5F5F5F5F5F5F5F5F5F5F5F5F5F5F5F5F5F5F5F5F5F5F5F5F5E2E2E2E2E2E2E2E2E2E2E2E2E2E2E2F5F5F5F5F5E2F5F5F5F5E2E20AE2F5F5F5F5F5E2F5F5F5F5F5F5F5F5F5F5F5E2F5E2F5F5
310
F5F5F5F5F576F5F5F5F5F5F5F5F5F5F5F5F50F0FF5F5F528282828282828282828F5F5F5F5F5F5F5F5F5F5F5F5F5F5F5F5F5F5F5F5F5F5F5F5F5F5F5F5F5F5F5F5F5F5F5F5E2F5F5F5F5F5E200E2F5F5F5F5F5E2F5F5F5F5F5F5F5F5F5F5F5E2F5E2F5F5F5F5F5F5F576F5F5F5F5F5F5F5F5F5F5F5F50F0FF5F5F528ECECEC
310
ECECECECEC28F5F5F5F5F5F5F5F5F5F5F5F5F5F5F5F5F5F5F5F5F5F5F5F5F5F5F5F5F5F5F5F5F5F5F5F5E2F5F5F5F5F5E200E2F5F5F5F5F5E2F5F5F5F5F5F5F5F5F5F5F5E2F5E2F5F5F5F5F5F5F576F5F5F5F5F5F5F5F5F5F5F5F50F0FF5F5F528ECECECECECECECEC28F5F5F5F5F5F5F5F5F5F5F5F5F5F5F5F5F5F5F5F5F5
310
F5F5F5F5F5F5F5F5F5F5F5F5F5F5F5E2F5F5F5F5F5E200E2F5F5F5F5F5E2F5F5F5F5F5F5F5F5F5F5F5E2F5E2F5F5F5F5F5F5F576F5F5F5F5F5F5F5F5F5F5F5F50F0FF5F5F528ECECECECECECECEC28F5F5F5F5F5F5F5F5F5F5F5F5F5F5F5F5F5F5F5F5F5F5F5F5F5F5F5F5F5F5F5F5F5F5F5F5E2F5F5F5F5F5E200E2F5F5F5
310
F5F5E2F5F5F5F5F5F5F5F5F5F5F5E2F5E2F5F5F5F5F5F5F576F5F5F5F5F5F5F5F5F5F5F5F50F0FF5F5F528ECECECECECECECEC28F5F5F5F5F5F5F5F5F5F5F5F5F5F5F5F5F5F5F5F5F5F5F5F5F5F5F5F5F5F5F5F5F5F5F5F5E2F5F5F5F5F5E200E2F5F5F5F5F5E2F5F5F5F5F5F5F5F5F5F5F5E2F5E2F5F5F5F5F5F5F576F5F5
310
F5F5F5F5F5F5F5F5F5F50F0FF5F5F528ECECECECECECECEC28F5F5F5F5F5F5F5F5F5F5F5F5F5F5F5F5F5F5F5F5F5F5F5F5F5F5F5F5F5F5F5F5F5F5F5F5E2F5F5F5F5F5E200E2F5F5F5F5F5E2F5F5F5F5F5F5F5F5F5F5F5E2F5E2F5F5F5F5F5767676F5F5F5F5F5F5F5F5F5F5F5F50F0FF5F5F528ECECECECECECECEC28F5F5
310
F5F5F5F5F5F5F5F5F5E2E2E2E2F5E2E2E2E2E2E2E2E2E2E2E2E2E2E2E2E2E2E2F5F5E2F5F5F5F5F5E200E2F5F5F5F5F5E2F5F5F5F5F5F5F5F5F5F5F5E2F5E2F5F5F5F5F5767676F5F5F5F5F5F5F5F5F5F5F5F50F0FF5F5F528ECECECECECECECEC28F5F5F5F5F5F5F5F5F5F5E2E2E2E2E2E2E2E2E2E2E2E2E2E2E2E2E2E2E2
310
E2E2E2E2E2F5F5E2F5F5F5F5F5E200E2F5F5F5F5F5E2F5F5F5F5F5F5F5F5F5F5F5E2F5E2F5F5F5F5F5767676F5CAE2E2E2E2E2E2E2E2E2E2E20FF5F5F528ECECECECECECECEC28F5F5F5F5F5F5F5F5F5F5E2F5E2E2E2E2E2E2E2E2E2E2E2E2E2E2E2E2E2F5F5F5F5F5F5F5E2F5F5F5F5F5E200E2F5F5F5F5F5E2F5F5F5F5F5
310
F5F5F5F5F5F5E2F5E2F5F5F5F5F5767676F5E2CAF5F5F5F5F5F5F5F5F5E20FF5F5F528ECECECECECECECEC28F5F5F5F5F5F5F5F5F5F5E2F5E2E2E2E2E2E2E2E2E2E2E2E2E2E2E2E2E2E2E2E2E2E2F5F5E2F5F5F5F5F5E200E2E2F5F5F5F5E2F5F5F5F5F5F5F5F5F5F5F5E2F5E2F5F5F5F5F5767676F5E2CAF5F5F5F5F5F5F5
310
F5F5E20FF5F5F528ECECECECECECECEC28F5F5F5F5F5F5F5F5F5F5E2E2E2E2E2E2F5E2E2E2E2E2E2E2E2E2E2E2E2E2E2E2E2E2F5F5E2F5F5F5F5E2E200E2E2F5F5F5F5E2F5F5F5F5F5F5F5F5F5F5F5E2F5E2F5F5F5F5F5767676F5E2F5CAF5F5F5F5F5F5F5F5E20FF5F5F528ECECECECECECECEC28F5F5F5F5F5F5F5F5F5F5
310
F5E2E2E2E2F5F5F5F5F5F5F5F5F5F5F5F5F5F5F5F5F5F5F5F5F5E2F5F5F5F5E2E200E2E2F5F5F5F5E2F5F5F5F5F5F5F5F5F5F5F5E2F5E2F5F5F5F5F5F5F576F5E2F5CAF5F5F5F5F5F5F5F5E20FF5F5F528ECECECECECECECEC28F5F5F5F5F5F5F5F5F5F5F5F5E2E2F5F5F5F5F5F5F5F5F5F5F5F5F5F5F5F5F5F5F5F5F5F5E2
310
F5F5F5F5E2E200E2E2F5F5F5F5E2F5F5F5F5F5F5F5F5F5F5F5E2F5E2F5F5F5F5F5F5F576F5E2F5F5CAF5F5F5F5F5F5F5E20FF5F5F528ECECECECECECECEC28F5F5F5F5F5F5F5F5F5F5F5F5F5F5F5F5F5E2E2E2E2E2E2E2E2F5F5F5F5F5F5F5F5F5F5F5E2F5F5F5F5E2E200E2E2F5F5F5F5E2F5F5F5F5F5F5F5F5F5F5F5E2F5
310
E2F5F5F5F5F5F5F576F5E2F5F5CAF5F5F5F5F5F5F5E20FF5F5F528ECECECECECECECEC28F5F5F5F5F5F5F5F5F5F5F5F5F5F5F5F5F5E2E2E2E2E2E2E2E2F5F5F5F5F5F5F5F5F5F5F5E2F5F5F5F5E2E200E2E2F5F5F5F5E2F5F5F5F5F5F5F5F5F5F5F5E2F5E2F5F5F5F5F5F5F576F5E2F5F5F5CAF5F5F5F5F5F5E20FF5F5F528
310
ECECECECECECECEC767676767676767676767676767676767676E2E2E2E2E2E2E2E2E2E2E2E2E2E2E2E2E2E2F5E2F5F5F5F5E2E200E2E2F5F5F5F5E2F5F5F5F5F5F5F5F5F5F5F5E2F5E2F5F5F5F5F5F5F576F5E2F5F5F5CAF5F5F5F5F5F5E20FF5F5F528ECECECECECECECEC2876F5F5F5F5F5F5F5F5F5F5F5F5F5F5F5F5E2
310
E2E2E2E2E2E2E2E2E2E2E2E2E2E2E2F5F5F5E2F5F5F5F5E2E200E2E2F5F5F5F5E2F5F5F5F5F5F5F5F5F5F5F5E2F5E2F5F5F5F5F5F5F576F5E2F5F5F5F5CAF5F5F5F5F5E20FF5F5F528ECECECECECECECEC28F5F5F5F5F5F5F5F5F5F5F5F5F5F5F5F5F5E2E2E2E2E2E2E2E2E2E2E2E2E2E2E2E2F5F5F5E2F5F5F5F5E2E200E2
310
E2F5F5F5F5E2F5F5F5F5F5F5F5F5F5F5F5E2F5E2F5F5F5F5F5F5F576F5E2F5F5F5F5CAF5F5F5F5F5E20FF5F5F528ECECECECECECECEC28F5F5F5F5F5F5F5F5F5F5F5F5F5F5F5F5F5F5F5F5F5F5F5F5F5F5F5F5F5F5F5F5F5F5F5F5E2F5F5F5F5E2E200E2E2F5F5F5F5E2F5F5F5F5F5F5F5F5F5F5F5E2F5E2F5F5F5F5F5F5F5
310
76F5E2F5F5F5F5F5CAF5F5F5F5E20FF5F5F528ECECECECECECECEC28F5F5F5F5F5F5F5F5F5F5F5F5F5F5F5F5F5F5F5F5F5F5F5F5F5F5F5F5F5F5F5F5F5F5F5F5E2F5F5F5F5E2E200E2E2F5F5F5F5E2F5F5F5F5F5F5F5F5F5F5F5E2F5E2F5F5F5F5F5F5F576F5E2F5F5F5F5F5CAF5F5F5F5E20FF5F5F528ECECECECECECECEC
310
28F5F5F5F5F5F5F5F5F5F5F5F5F5F5F5F5F5F5F5F5F5F5F5F5F5F5F5F5F5F5F5F5F5F5F5F5E2F5F5F5F5E2E200E2E2F5F5F5F5E2F5F5F5F5F5F5F5F5F5F5F5E2F5E2F5F5F5F5F5F5F576F5E2F5F5F5F5F5F5CAF5F5F5E20FF5F5F528ECECECECECECECEC28F5F5F5F5F5F5F5F5F5F5F5F5F5F5F5F5F5F5F5F5F5F5F5F5F5F5
310
F5F5F5F5F5F5F5F5F5F5E2F5F5F5F5E2E200E2E2F5F5F5F5E2F5F5F5F5F5F5F5F5F5F5F5E2F5E2F5F5F5F5F5F5F576F5E2F5F5F5F5F5F5CAF5F5F5E20FF5F5F528ECECECECECECECEC28F5F5F5F5F5F5F5F5F5F5F5F5F5F5F5F5F5F5F5F5F5F5F5F5F5F5F5F5F5F5F5F5F5F5F5F5E2F5F5F5F5E2E200E2E2F5F5F5F5E2F5F5
310
F5F5F5F5F5F5F5F5F5E2F5E2F5F5F5F5F5F5F576F5E2F5F5F5F5F5F5F5CAF5F5E20FF5F5F528ECECECECECECECEC28F5F5F5F5F5F5F5F5F5F5F5F5F5F5F5F5F5F5F5F5F5F5F5F5F5F5F5F5F5F5F5F5F5F5F5F5E2F5F5F5F5E2E200E2E2F5F5F5F5E2F5F5F5F5F5F5F5F5F5F5F5E2F5E2F5F5F5F5F5F5F576F5E2F5F5F5F5F5
310
F5F5CAF5F5E20FF5F5F528ECECECECECECECEC28F5F5F5F5F5F5F5F5F5F5F5F5F5F5F5F5F5F5F5F5F5F5F5F5F5F5F5F5F5F5F5F5F5F5F5F5E2F5F5F5F5E2E200E2E2F5F5F5F5E2F5F5F5F5F5F5F5F5F5F5F5E2F5E2F5F5F5F5F5F5F576F5E2F5F5F5F5F5F5F5F5CAF5E20FF5F5F528ECECECECECECECEC28F5F5F5F5F5F5F5
310
F5F5F5F5F5F5F5F5F5F5F5F5F5F5F5F5F5F5F5F5F5F5F5F5F5F5F5F5F5E2F5F5F5F5E2E200E2E2F5F5F5F5E2F5F5F5F5F5F5F5F5F5F5F5E2F5E2F5F5F5F5F5F57676767676767676767676767676760FF5F5F528ECECECECECECECEC28F5F5F5F5F5F5F5F5F5F5F5F5F5F5F5F5F5F5F5F5F5F5F5F5F5F5F5F5F5F5F5F5F5F5
310
F5F5E2F5F5F5F5E2E200E2F5F5F5F5F5E2F5F5F5F5F5F5F5F5F5F5F5E2F5E2F5F5F5F5F5F5F5F5F5E2F5F5F5F5F5F5F5F5F5CAE2F5F5F5F528ECECECECECECECEC28F5F5F5F5F5F5F5F5F5F5F5F5F5F5F5F5F5F5F5F5F5F5F5F5F5F5F5F5F5F5F5F5F5F5F5F5E2F5F5F5F5F5E200E2F5F5F5F5F5E2F5F5F5F5F5F5F5F5F5F5
310
F5E2F5E2F5F5F5F5F5F5F5F5F5E2F5F5F5F5F5F5F5F5F5CAE2F5F5F5F528ECECECECECECECEC28F5F5F5F5F5F5F5F5F5F5F5F5F5F5F5F5F5F5F5F5F5F5F5F5F5F5F5F5F5F5F5F5F5F5F5F5E2F5F5F5F5F5E200E2F5F5F5F5F5E2F5F5F5F5F5F5F5F5F5F5F5E2F5E2F5F5F5F5F5F5F5F5F5E2E2E2E2E2E2E2E2E2E2E2CAF5F5
310
F5F528ECECECECECECECEC28F5F5F5F5F5F5F5F5F5F5F5F5F5F5F5F5F5F5F5F5F5F5F5F5F5F5F5F5F5F5F5F5F5F5F5F5E2F5F5F5F5F5E200E2F5F5F5F5F5E2F5F5F5F5F5F5F5F5F5F5F5E2F5E2F5F5F5F5F5F5F5F5F5F5F5F5F5F5F5F5F5F5F5F528F5F5F5F528ECECECECECECECEC28F5F5F5F5F5F5F5F5F5F5F5F5F5F5F5
310
F5F5F5F5F5F5F5F5F5F5F5F5F5F5F5F5F5F5F5F5F5E2F5F5F5F5F5E200E2F5F5F5F5F5E2F5F5F5F5F5F5F5F5F5F5F5E2F5E2F5F5F5F5F5F5F5F5F5F5F5F5F5F5F5F5F5F5F5F528F5F5F5F528ECECECECECECECEC28F5F5F5F5F5F5F5F5F5F5F5F5F5F5F5F5F5F5F5F5F5F5F5F5F5F5F5F5F5F5F5F5F5F5F5F5E2F5F5F5F5F5
310
E200E2F5F5F5F5F5E2F5F5F5F5F5F5F5F5F5F5F5E2F5E2F5F5F5F5F5F5F5F5F5F5F5F5F5F5F5F5F5F5F5F528F5F5F5F528ECECECECECECECEC28F5F5F5F5F5F5F5F5F5F5F5F5F5F5F5F5F5F5F5F5F5F5F5F5F5F5F5F5F5F5F5F5F5F5F5F5E2F5F5F5F5F5E200E2F5F5F5F5F5E2F5F5F5F5F5F5F5F5F5F5F5E2F5E2F5F5F5F5
310
F5F5F5F5F5F5F5F5F5F5F5F5F5F5F5F528F5F5F5F528ECECECECECECECEC28F5F5F5F5F5F5F5F5F5F5F5F5F5F5F5F5F5F5F5F5F5F5F5F5F5F5F5F5F5F5F5F5F5F5F5F5E2F5F5F5F5F5E200E2F5F5F5F5F5E2F5F5F5F5F5F5F5F5F5F5F5E2F5E2F5F5F5F5F5F5F5F5F5F5F5F5F5F5F5F5F5F5F5F5E2F5F5F5F528ECECECECEC
310
ECECEC28F5F5F5F5F5F5F5F5F5F5F5F5F5F5F5F5F5F5F5F5F5F5F5F5F5F5F5F5F5F5F5F5F5F5F5F5E2F5F5F5F5F5E200E2F5F5F5F5F5E2F5F5F5F5F5F5F5F5F5F5F5E2F5E2F5F5F5F5F5F5F5F5F5F5F5F5F5F5F5F576F5F5F528F5F5F5F528ECECECECECECECEC28F5F5F5F5F5F5F5F5F5F5F5F5F5F5F5F5F5F5F5F5F5F5F5
310
F5F5F5F5F5F5F5F5F5F5F5F5F5E2F5F5F5F5F5E200E2F5F5F5F5F5E2F5F5F5F5F5F5F5F5F576767676767676767676767676767676767676767676767676767676767676767676767676767676767676F5F5F5F5F5F5F5F5F5F5F5F5F5F5F5F5F5F5F5F5F5F5F5F5F5F5F5F5F5F5F5F5F5E2F5F5F5F5F5E200E2E2F5F5F5F5
310
E2F5F5F5F5F5F5F5F5F5F5F5F5F5F5F5F5F5F5F5F5F5F5F5F5F5F5F5F5F5F576F5F5F5F5F5F5F5F5F5F5F5F5F5F5F5F5F5F5F5F5F5F5F5F5F5F5F5F5F5F5F5F5F5F5F5F5F5F5F5F5F5F5F5F5F5F5F5F5F5F5F5F5F5F5E2F5F5F5F5E2E200E2E2F5F5F5F5E2F5F5F5F5F5F5F5F5F5F5F5F5F5F5F5F5F5F5F5F5F5F5F5F5F5F5
310
F5F5F5F576F5F5F5F5F5F5F5F5F5F5F5F5F5F5F5F5F5F5F5F5F5F5F5F5F5F5F5F5F5F5F5F5F5F5F5F5F5F5F5F5F5F5F5F5F5F5F5F5F5F5F5F5F5F5E2F5F5F5F5E2E200E2E2F5F5F5F5E2F5F5F5F5F5F5F5F5F5F5F5F5F5F5F5F5F5F5F5F5F5F5F5F5F5F5F5F5F5F5F5F5F5F5F5F5F5F5F5F5F5F5F5F5F5F5F5F5F5F5F5F5F5
310
F5F5F5F5F5F5F5F5F5F5F5F5F5F5F5F5F5F5F5F5F5F5F5F5F5F5F5F5F5F5F5F5E2F5F5F5F5E2E200E2E2F5F5F5F5E2E2E2E2E2E2E2E2E2E2E2E2E2E2E2E2E2E2E2E2E2E2E2E2E2E2E2E2E2E2E2E2E2E2E2E2E2E2E2E2E2E2E2E2E2E2E2E2E2E2E2E2E2E2E2E2E2E2E2E2E2E2E2E2E2E2E2E2E2E2E2E2E2E2E2E2E2E2E2E2E2
310
E2E2E2E2E2E2F5F5F5F5E2E200E2E2F5F5F5F5F5F5F5F5F5F5F5F5F5F5F5F5F5F5F5F5F5F5F5F5F5F5F5F5F5F5F5F5F5F5F5F5F5F5F5F5F5F5F5F5F5F5F5F5F5F5F5F5F5F5F5F5F5F5F5F5F5F5F5F5F5F5F5F5F5F5F5F5F5F5F5F5F5F5F5F5F5F5F5F5F5F5F5F5F5F5F5F5F5F5F5E2E200E2E2F5F5F5F5F5F5F5F5F5F5F5F5
310
F5F5F5F5F5F5F5F5F5F5F5F5F5F5F5F5F5F5F5F5F5F5F5F5F5F5F5F5F5F5F5F5F5F5F5F5F5F5F5F5F5F5F5F5F5F5F5F5F5F5F5F5F5F5F5F5F5F5F5F5F5F5F5F5F5F5F5F5F5F5F5F5F5F5F5F5F5F5F5F5F5F5F5E2E200E2E2F5F5F5F5F5F5F5F5F5F5F5F5F5F5F5F5F5F5F5F5F5F5F5F5F5F5F5F5F5F5F5F5F5F5F5F5F5F5F5
310
F5F5F5F5F5F5F5F5F5F5F5F5F5F5F5F5F5F5F5F5F5F5F5F5F5F5F5F5F5F5F5F5F5F5F5F5F5F5F5F5F5F5F5F5F5F5F5F5F5F5F5F5F5F5F5F5E2E200E2E2F5F5F5F5F5F5F5F5F5F5F5F5F5F5F5F5F5F5F5F5F5F5F5F5F5F5F5F5F5F5F5F5F5F5F5F5F5F5F5F5F5F5F5F5F5F5F5F5F5F5F5F5F5F5F5F5F5F5F5F5F5F5F5F5F5F5
310
F5F5F5F5F5F5F5F5F5F5F5F5F5F5F5F5F5F5F5F5F5F5F5F5F5F5F5F5F5E2E200E2E2E2E2E2E2E2E2E2F5F5F5F5F5F5F5F5F5E2E2E2E2E2E2E2E2E2E2E2E2E2E2E2F5F5F5F5F5F5F5F5F5E2E2E2E2E2E2E2E2E2E2E2E2E2E2E2F5F5F5F5F5F5F5F5F5E2E2E2E2E2E2E2E2E2E2E2E2E2E2E2F5F5F5F5F5F5F5F5F5E2E2E2E2E2
310
E2E2E2E200E2F5F5F5F5F5F5F5F5F5F5F5F5F5F5F5F5F5F5F5F5F5F5F5F5F5F5F5F5F5F5F5F5F5F5F5F5F5F5F5F5F5F5F5F5F5F5F5F5F5F5F5F5F5F5F5F5F5F5F5F5F5F5F5F5F5F5F5F5F5F5F5F5F5F5F5F5F5F5F5F5F5F5F5F5F5F5F5F5F5F5F5F5F5F5F5F5F5E200E2E2E2E2E2E2E2E2E2E2E2E2E2E2E2E2E2E2E2E2E2E2
310
E2E2E2E2E2E2E2E2E2E2E2E2E2E2E2E2E2E2E2E2E2E2E2E2E2E2E2E2E2E2E2E2E2E2E2E2E2E2E2E2E2E2E2E2E2E2E2E2E2E2E2E2E2E2E2E2E2E2E2E2E2E2E2E2E2E2E2E2E2E2E2E2E2E2E2E2E200
  0
XRECORD
  5
625
102
{ACAD_REACTORS
330
624
102
}
330
624
100
AcDbXrecord
280
     1
102
SHADEPLOT
 70
     0
102
SHADEPLOTRESLEVEL
 70
     2
102
SHADEPLOTCUSTOMDPI
 70
   300
  0
ENDSEC
  0
EOF
